<?xml version="1.0" standalone="no"?>
<!DOCTYPE svg PUBLIC "-//W3C//DTD SVG 1.1//EN" "http://www.w3.org/Graphics/SVG/1.1/DTD/svg11.dtd" >
<svg xmlns="http://www.w3.org/2000/svg" xmlns:xlink="http://www.w3.org/1999/xlink" version="1.1">
<metadata>
Created by FontForge 20190801 at Tue Apr 26 16:44:35 2016
 By root
Copyright (c) 2014 by Type Dynamic. All rights reserved.
</metadata>
<defs>
<font id="Sailec-Medium" horiz-adv-x="274" >
  <font-face 
    font-family="Sailec-Medium"
    font-weight="400"
    font-stretch="normal"
    units-per-em="1000"
    panose-1="0 0 6 0 0 0 0 0 0 0"
    ascent="800"
    descent="-200"
    x-height="513"
    cap-height="748"
    bbox="-212 -337 1219 1070"
    underline-thickness="50"
    underline-position="-100"
    unicode-range="U+000D-FB02"
  />
<missing-glyph horiz-adv-x="717" 
d="M75 0v748h567v-748h-567zM360 446l136 222h-272zM308 373l-148 233v-467zM557 145v456l-144 -228zM495 80l-135 220l-134 -220h269z" />
    <glyph glyph-name=".notdef" horiz-adv-x="717" 
d="M75 0v748h567v-748h-567zM360 446l136 222h-272zM308 373l-148 233v-467zM557 145v456l-144 -228zM495 80l-135 220l-134 -220h269z" />
    <glyph glyph-name=".null" horiz-adv-x="0" 
 />
    <glyph glyph-name="nonmarkingreturn" unicode="&#xd;" horiz-adv-x="600" 
 />
    <glyph glyph-name="NULL" horiz-adv-x="0" 
 />
    <glyph glyph-name="NULL" horiz-adv-x="0" 
 />
    <glyph glyph-name="space" unicode=" " horiz-adv-x="233" 
 />
    <glyph glyph-name="exclam" unicode="!" horiz-adv-x="299" 
d="M89 214l-6 534h131l-6 -534h-119zM148 134q30 0 51.5 -21t21.5 -52q0 -29 -21.5 -50t-51.5 -21q-29 0 -50 21t-21 50q0 31 21 52t50 21z" />
    <glyph glyph-name="quotedbl" unicode="&#x22;" horiz-adv-x="370" 
d="M55 495l-12 253h112l-12 -253h-88zM226 495l-12 253h112l-12 -253h-88z" />
    <glyph glyph-name="numbersign" unicode="#" horiz-adv-x="650" 
d="M643 551l-22 -90h-113l-42 -177h117l-21 -90h-117l-46 -194h-99l47 194h-130l-46 -194h-99l46 194h-111l21 90h112l42 177h-116l22 90h115l48 197h98l-47 -197h129l48 197h98l-47 -197h113zM238 284h130l42 177h-130z" />
    <glyph glyph-name="dollar" unicode="$" horiz-adv-x="659" 
d="M612 211q0 -53 -18 -92t-49 -66t-73 -42t-90 -19v-110h-94v111q-51 6 -94 23.5t-74 46t-49.5 67.5t-19.5 87l121 7q2 -30 15.5 -54t36 -41.5t53 -26.5t65.5 -9q32 0 59.5 6t47.5 19.5t31 34.5t11 50q0 28 -12 47t-35 32t-56 23t-76 20q-50 12 -94.5 27t-77.5 38.5
t-52.5 59t-19.5 89.5q0 41 13.5 78t41 66t68.5 48.5t97 24.5v109h94v-111q46 -6 84 -23.5t66 -44.5t43.5 -63.5t17.5 -81.5l-121 -7q-3 57 -41.5 89t-101.5 32q-69 0 -104 -32t-35 -80q0 -28 10.5 -46.5t31.5 -31t52 -21.5t72 -18q59 -14 106.5 -31t80.5 -41.5t51 -59
t18 -83.5z" />
    <glyph glyph-name="percent" unicode="%" horiz-adv-x="863" 
d="M204 758q37 0 68 -12.5t53.5 -36.5t35 -57.5t12.5 -75.5t-12.5 -75.5t-35 -57.5t-53.5 -37t-68 -13q-36 0 -67 13t-53.5 37t-35.5 57.5t-13 75.5t13 75.5t35.5 57.5t53.5 36.5t67 12.5zM120 0l513 748h109l-513 -748h-109zM204 679q-38 0 -62 -27t-24 -76t24 -76.5
t62 -27.5t62 27t24 77q0 49 -24 76t-62 27zM658 355q37 0 68 -12.5t53.5 -36.5t35 -57.5t12.5 -75.5t-12.5 -75.5t-35 -57.5t-53.5 -37t-68 -13q-36 0 -67 13t-53.5 37t-35.5 57.5t-13 75.5t13 75.5t35.5 57.5t53.5 36.5t67 12.5zM658 276q-38 0 -62 -27t-24 -76t24 -76.5
t62 -27.5t62 27t24 77q0 49 -24 76t-62 27z" />
    <glyph glyph-name="ampersand" unicode="&#x26;" horiz-adv-x="707" 
d="M524 95q-49 -54 -106.5 -79t-123.5 -25q-63 0 -110 16.5t-79 45t-48 67t-16 83.5q0 73 34.5 122.5t89.5 87.5q-26 31 -44 67t-18 81q0 49 16 85.5t44.5 61.5t68.5 37.5t87 12.5q86 0 144.5 -46.5t70.5 -131.5l-115 -9q-6 41 -31.5 63t-68.5 22q-44 0 -70.5 -23t-26.5 -71
q0 -23 9 -42.5t24.5 -37t35 -34.5t40.5 -35l175 -151q27 58 48 141l105 -28q-15 -55 -33 -101t-38 -84l129 -111l-72 -89zM296 92q42 0 79.5 17.5t69.5 54.5l-199 172l-13 12q-33 -25 -52 -56.5t-19 -77.5q0 -57 35.5 -89.5t98.5 -32.5z" />
    <glyph glyph-name="quotesingle" unicode="'" horiz-adv-x="199" 
d="M55 495l-12 253h112l-12 -253h-88z" />
    <glyph glyph-name="parenleft" unicode="(" 
d="M256 697q-44 -72 -74.5 -166.5t-30.5 -210.5t30.5 -210t74.5 -166l-97 -35q-25 37 -46.5 82t-38 97t-26 110t-9.5 122t9.5 122t26 110t38 97t46.5 82z" />
    <glyph glyph-name="parenright" unicode=")" 
d="M116 731q25 -37 46.5 -82t38 -97t26 -110t9.5 -122t-9.5 -122t-26 -110t-38 -97t-46.5 -82l-97 35q44 72 74.5 166t30.5 210t-30.5 210.5t-74.5 166.5z" />
    <glyph glyph-name="asterisk" unicode="*" horiz-adv-x="349" 
d="M320 677l20 -60l-117 -37l74 -97l-52 -38l-70 100l-71 -101l-51 39l73 97l-117 37l20 60l116 -40l-2 123h63l-2 -123z" />
    <glyph glyph-name="plus" unicode="+" horiz-adv-x="547" 
d="M515 421v-102h-187v-192h-109v192h-187v102h187v188h109v-188h187z" />
    <glyph glyph-name="comma" unicode="," horiz-adv-x="221" 
d="M111 133q32 0 49.5 -22.5t17.5 -57.5q0 -65 -30.5 -117.5t-99.5 -89.5v48q51 37 62 97q-29 2 -48.5 21.5t-19.5 48.5q0 30 19.5 51t49.5 21z" />
    <glyph glyph-name="hyphen" unicode="-" horiz-adv-x="404" 
d="M45 209v105h314v-105h-314z" />
    <glyph glyph-name="period" unicode="." horiz-adv-x="227" 
d="M113 134q30 0 51.5 -21t21.5 -52q0 -29 -21.5 -50t-51.5 -21q-29 0 -50 21t-21 50q0 31 21 52t50 21z" />
    <glyph glyph-name="slash" unicode="/" horiz-adv-x="390" 
d="M9 -67l255 815h117l-254 -815h-118z" />
    <glyph glyph-name="zero" unicode="0" horiz-adv-x="647" 
d="M324 758q61 0 112 -25t87 -74t56 -120.5t20 -164.5t-20 -164.5t-56 -120t-87 -74t-112 -25.5q-62 0 -113 25.5t-87 74t-56 120t-20 164.5t20 164.5t56 120.5t87 74t113 25zM324 652q-78 0 -116.5 -70.5t-38.5 -207.5t38.5 -207.5t116.5 -70.5q77 0 115.5 70.5t38.5 207.5
t-38.5 207.5t-115.5 70.5z" />
    <glyph glyph-name="one" unicode="1" horiz-adv-x="381" 
d="M178 0v591l-114 -84l-57 94l202 147h87v-748h-118z" />
    <glyph glyph-name="two" unicode="2" horiz-adv-x="539" 
d="M276 758q106 0 163.5 -55.5t57.5 -155.5q0 -47 -11 -86.5t-30.5 -75t-45 -67.5t-54.5 -63l-139 -149h287v-106h-451v98l215 230q30 31 50.5 56.5t34 49.5t19.5 49.5t6 58.5q0 51 -25.5 80.5t-73.5 29.5q-56 0 -82 -34t-27 -96l-119 7q2 108 60.5 168.5t164.5 60.5z" />
    <glyph glyph-name="three" unicode="3" horiz-adv-x="562" 
d="M278 758q106 0 164.5 -57t58.5 -154q0 -64 -29 -102.5t-70 -57.5q48 -14 81.5 -58t33.5 -113q0 -53 -17 -95t-48.5 -71t-75 -44.5t-96.5 -15.5q-115 0 -175.5 60t-65.5 163l119 7q5 -59 34.5 -91.5t86.5 -32.5t87.5 32t30.5 90q0 59 -35 87t-91 28h-75v106h73
q48 0 80 28.5t32 79.5q0 52 -27.5 78.5t-75.5 26.5q-50 0 -78.5 -30t-31.5 -86l-118 6q3 101 61.5 158.5t166.5 57.5z" />
    <glyph glyph-name="four" unicode="4" horiz-adv-x="599" 
d="M575 263v-106h-117v-157h-117v157h-314v98l331 493h100v-485h117zM340 263v270l-182 -270h182z" />
    <glyph glyph-name="five" unicode="5" horiz-adv-x="564" 
d="M294 466q49 0 90.5 -15.5t71.5 -45t47 -73t17 -99.5q0 -54 -16.5 -99t-48 -77t-76 -49.5t-101.5 -17.5q-110 0 -171 58t-66 157l119 7q5 -54 34 -85t85 -31q60 0 91 37.5t31 96.5q0 60 -32 95t-87 35q-32 0 -57 -9.5t-48 -26.5h-110v424h424v-105h-306v-204q22 13 49 20
t60 7z" />
    <glyph glyph-name="six" unicode="6" horiz-adv-x="599" 
d="M304 485q54 -1 100.5 -19t80.5 -50.5t53 -78.5t19 -101q0 -56 -19.5 -101.5t-54 -77.5t-81 -49.5t-101.5 -17.5t-102 17.5t-81.5 49.5t-54 77.5t-19.5 101.5q0 48 14 85.5t39 72.5l258 354h142zM301 96q60 0 98 38.5t38 105.5t-38 104t-98 37q-35 0 -62.5 -12t-45.5 -36
q-28 -37 -28 -93q0 -67 38 -105.5t98 -38.5z" />
    <glyph glyph-name="seven" unicode="7" horiz-adv-x="540" 
d="M188 0h-131l325 643h-361v105h492v-96z" />
    <glyph glyph-name="eight" unicode="8" horiz-adv-x="606" 
d="M302 758q49 0 92 -14t74 -40t49 -64.5t18 -86.5q0 -56 -25 -95t-67 -61q50 -24 80.5 -70t30.5 -112q0 -53 -19 -94.5t-53 -70.5t-79.5 -44.5t-99.5 -15.5t-99.5 15.5t-79.5 44.5t-53 70.5t-19 94.5q0 65 30 111t80 70q-42 22 -67 61.5t-25 95.5q0 48 17.5 86.5t48.5 64.5
t73.5 40t92.5 14zM303 652q-48 0 -81 -27t-33 -78q0 -49 33 -76t81 -27q49 0 81.5 27t32.5 76q0 51 -32.5 78t-81.5 27zM302 340q-28 0 -52 -8t-42 -23.5t-28 -38.5t-10 -52t10 -51.5t28 -38.5t42 -24t52 -8q57 0 95 32t38 90q0 59 -38 90.5t-95 31.5z" />
    <glyph glyph-name="nine" unicode="9" horiz-adv-x="599" 
d="M298 758q55 0 102 -17.5t81.5 -49.5t54 -77.5t19.5 -101.5q0 -48 -14 -85.5t-39 -72.5l-258 -354h-142l193 263q-54 1 -100.5 19t-80.5 50.5t-53 78t-19 101.5t19.5 101.5t54 77.5t81 49.5t101.5 17.5zM298 367q35 0 62.5 12t45.5 36q28 37 28 93q0 67 -38 105.5
t-98 38.5t-98 -38.5t-38 -105.5t38 -104t98 -37z" />
    <glyph glyph-name="colon" unicode=":" horiz-adv-x="227" 
d="M107 523q30 0 51.5 -21t21.5 -52q0 -29 -21.5 -50t-51.5 -21q-29 0 -50 21t-21 50q0 31 21 52t50 21zM107 134q30 0 51.5 -21t21.5 -52q0 -29 -21.5 -50t-51.5 -21q-29 0 -50 21t-21 50q0 31 21 52t50 21z" />
    <glyph glyph-name="semicolon" unicode=";" horiz-adv-x="227" 
d="M107 379q-29 0 -50 21t-21 50q0 31 21 52t50 21q30 0 51.5 -21t21.5 -52q0 -29 -21.5 -50t-51.5 -21zM111 133q32 0 49.5 -22.5t17.5 -57.5q0 -65 -30.5 -117.5t-99.5 -89.5v48q51 37 62 97q-29 2 -48.5 21.5t-19.5 48.5q0 30 19.5 51t49.5 21z" />
    <glyph glyph-name="less" unicode="&#x3c;" horiz-adv-x="527" 
d="M249 369l246 -120l-1 -127l-466 247l466 247l1 -127z" />
    <glyph glyph-name="equal" unicode="=" horiz-adv-x="547" 
d="M32 437v106h483v-106h-483zM32 195v106h483v-106h-483z" />
    <glyph glyph-name="greater" unicode="&#x3e;" horiz-adv-x="527" 
d="M33 122l-1 127l246 120l-246 120l1 127l466 -247z" />
    <glyph glyph-name="question" unicode="?" horiz-adv-x="516" 
d="M259 759q56 0 100.5 -16t75 -45t47 -69.5t16.5 -89.5q0 -32 -8 -57t-22 -45t-33 -37t-40 -33q-39 -30 -59 -57t-20 -67v-29h-119v34q0 50 26 86.5t70 72.5q37 29 60 57.5t23 72.5q0 52 -30.5 84.5t-86.5 32.5t-87 -31t-36 -85l-119 8q3 49 21 88t49.5 67t75 43t96.5 15z
M255 134q30 0 51.5 -21t21.5 -52q0 -29 -21.5 -50t-51.5 -21q-29 0 -50 21t-21 50q0 31 21 52t50 21z" />
    <glyph glyph-name="at" unicode="@" horiz-adv-x="812" 
d="M406 609q79 0 146 -27.5t115.5 -76t76 -115t27.5 -144.5q0 -102 -41 -153.5t-113 -51.5q-75 0 -97 55q-22 -27 -54.5 -42.5t-80.5 -15.5q-42 0 -77 14.5t-59.5 42t-38.5 66t-14 86.5t14 87t38.5 66.5t59.5 42t77 14.5q48 0 80.5 -15.5t48.5 -39.5v42h82v-282
q0 -49 42 -49q28 0 46.5 33.5t18.5 99.5q0 64 -22.5 118.5t-62.5 94.5t-94 62.5t-118 22.5q-65 0 -119 -22.5t-94 -62.5t-62 -94.5t-22 -118.5q0 -67 23.5 -121.5t63 -93.5t92.5 -60t113 -21t102.5 12t80.5 35l18 -63q-41 -25 -87.5 -37.5t-113.5 -12.5q-76 0 -141.5 26.5
t-114 74.5t-76.5 114.5t-28 146.5q0 78 27 144.5t75.5 115t115.5 76t147 27.5zM510 258q0 60 -30.5 91t-80.5 31q-51 0 -83 -34t-32 -99q0 -64 32 -98.5t83 -34.5q50 0 80.5 31.5t30.5 91.5v21z" />
    <glyph glyph-name="A" unicode="A" horiz-adv-x="759" 
d="M615 0l-69 167h-334l-70 -167h-130l316 748h101l317 -748h-131zM501 273l-121 291l-122 -291h243z" />
    <glyph glyph-name="B" unicode="B" horiz-adv-x="695" 
d="M378 748q49 0 90.5 -12.5t72 -37.5t47.5 -63.5t17 -89.5q0 -59 -23 -97t-61 -57q49 -16 82.5 -60.5t33.5 -118.5q0 -53 -17.5 -93t-49 -66.5t-74.5 -39.5t-94 -13h-318v748h294zM202 434h179q46 0 74.5 23.5t28.5 79.5q0 54 -33 80t-87 26h-162v-209zM202 106h186
q27 0 50 6t40 19.5t27 35t10 51.5q0 31 -10 52.5t-26.5 35t-39 20t-46.5 6.5h-191v-226z" />
    <glyph glyph-name="C" unicode="C" horiz-adv-x="816" 
d="M426 758q67 0 126 -19.5t105 -55.5t76.5 -88t39.5 -117l-124 -11q-15 90 -76.5 137.5t-150.5 47.5q-55 0 -100.5 -19t-78.5 -55t-51 -87.5t-18 -116.5q0 -68 19 -120t53 -87t79 -53t98 -18q88 0 149 45.5t77 132.5l125 -11q-11 -64 -41.5 -114.5t-76 -86t-104 -54
t-125.5 -18.5q-80 0 -148.5 26t-118.5 75.5t-78.5 120.5t-28.5 162t28 162.5t78 120.5t118 75t149 26z" />
    <glyph glyph-name="D" unicode="D" horiz-adv-x="801" 
d="M383 748q78 0 145 -25.5t116 -73.5t76.5 -117.5t27.5 -157.5q0 -89 -28 -158.5t-77 -117.5t-116.5 -73t-145.5 -25h-297v748h299zM202 102h180q54 0 99.5 17.5t78.5 51.5t51 85t18 118t-18 118t-50.5 85t-77.5 51.5t-100 17.5h-181v-544z" />
    <glyph glyph-name="E" unicode="E" horiz-adv-x="597" 
d="M203 643v-206h307v-103h-307v-228h351v-106h-470v748h470v-105h-351z" />
    <glyph glyph-name="F" unicode="F" horiz-adv-x="585" 
d="M203 643v-209h290v-105h-290v-329h-119v748h470v-105h-351z" />
    <glyph glyph-name="G" unicode="G" horiz-adv-x="827" 
d="M775 353q0 -83 -24.5 -150.5t-70 -114.5t-110.5 -72.5t-145 -25.5t-148 26t-117.5 75.5t-78 120.5t-28.5 162t28 162.5t77.5 120.5t117.5 75t148 26q64 0 121.5 -17.5t102.5 -51t76 -82t44 -110.5l-123 -20q-15 82 -74 128.5t-148 46.5q-56 0 -101.5 -17.5t-78.5 -52.5
t-51 -87t-18 -121t18.5 -121t51.5 -87t78.5 -52.5t100.5 -17.5q43 0 81 11.5t67 34.5t48.5 59t26.5 86h-221v105h350v-39z" />
    <glyph glyph-name="H" unicode="H" horiz-adv-x="757" 
d="M555 0v333h-352v-333h-119v748h119v-309h352v309h119v-748h-119z" />
    <glyph glyph-name="I" unicode="I" horiz-adv-x="286" 
d="M84 0v748h119v-748h-119z" />
    <glyph glyph-name="J" unicode="J" horiz-adv-x="594" 
d="M516 250q0 -125 -65.5 -192.5t-180.5 -67.5q-111 0 -177 63.5t-72 177.5l119 19q4 -74 38 -114t93 -40q60 0 93 38t33 113v501h119v-498z" />
    <glyph glyph-name="K" unicode="K" horiz-adv-x="695" 
d="M685 0h-146l-245 340l-91 -105v-235h-119v748h119v-335l291 335h153l-273 -314z" />
    <glyph glyph-name="L" unicode="L" horiz-adv-x="591" 
d="M557 106v-106h-473v748h119v-642h354z" />
    <glyph glyph-name="M" unicode="M" horiz-adv-x="978" 
d="M776 0v481l-247 -475h-78l-248 475v-481h-119v748h105l301 -568l300 568h104v-748h-118z" />
    <glyph glyph-name="N" unicode="N" horiz-adv-x="756" 
d="M572 0l-369 528v-528h-119v748h100l370 -529v529h119v-748h-101z" />
    <glyph glyph-name="O" unicode="O" horiz-adv-x="870" 
d="M435 758q81 0 151 -26.5t121 -76.5t80 -121t29 -160t-29 -160t-80 -121t-121 -76.5t-151 -26.5q-82 0 -152 26.5t-121 76.5t-80 121t-29 160t29 160t80 121t121 76.5t152 26.5zM435 652q-56 0 -104 -19t-83 -54.5t-54.5 -87t-19.5 -117.5q0 -65 19.5 -116.5t54.5 -87.5
t83 -55t104 -19t103.5 19t82.5 55t54.5 87.5t19.5 116.5q0 66 -19.5 117.5t-54.5 87t-82.5 54.5t-103.5 19z" />
    <glyph glyph-name="P" unicode="P" horiz-adv-x="657" 
d="M390 748q51 0 94 -15t74.5 -44.5t49 -73t17.5 -100.5t-17.5 -100.5t-49 -73t-74.5 -44.5t-94 -15h-187v-282h-119v748h306zM202 388h173q27 0 50 8t40.5 23.5t27.5 39.5t10 56t-10 56t-27.5 40t-40.5 24t-50 8h-173v-255z" />
    <glyph glyph-name="Q" unicode="Q" horiz-adv-x="873" 
d="M650 48q-93 -58 -215 -58q-82 0 -152 26.5t-121 76.5t-80 121t-29 160t29 160t80 121t121 76.5t152 26.5q81 0 151 -26.5t121 -76.5t80 -121t29 -160q0 -75 -20.5 -136.5t-57.5 -109.5l121 -120l-83 -85zM435 96q38 0 71 8.5t62 24.5l-133 133l83 84l135 -134
q20 32 31 73t11 89q0 66 -19.5 117.5t-54.5 87t-82.5 54.5t-103.5 19t-104 -19t-83 -54.5t-54.5 -87t-19.5 -117.5q0 -65 19.5 -116.5t54.5 -87.5t83 -55t104 -19z" />
    <glyph glyph-name="R" unicode="R" horiz-adv-x="695" 
d="M368 286h-165v-286h-119v748h302q51 0 94 -15t74.5 -44t49 -72t17.5 -100q0 -81 -35 -134t-94 -77l168 -306h-134zM371 392q27 0 50 7.5t40.5 23.5t27.5 39t10 55t-10 55.5t-27.5 39.5t-40.5 23.5t-50 7.5h-169v-251h169z" />
    <glyph glyph-name="S" unicode="S" horiz-adv-x="659" 
d="M327 758q57 0 105 -14.5t83.5 -42.5t55.5 -68.5t22 -91.5l-121 -7q-3 57 -41.5 89t-101.5 32q-69 0 -104 -32t-35 -80q0 -28 10.5 -46.5t31.5 -31t52 -21.5t72 -18q59 -14 106.5 -31t80.5 -41.5t51 -59t18 -83.5q0 -58 -21.5 -99.5t-58 -68.5t-86 -40t-104.5 -13
q-62 0 -114 15t-91 44t-61.5 71t-24.5 97l121 7q2 -30 15.5 -54t36 -41.5t53 -26.5t65.5 -9q32 0 59.5 6t47.5 19.5t31 34.5t11 50q0 28 -12 47t-35 32t-56 23t-76 20q-50 12 -94.5 27t-77.5 38.5t-52.5 59t-19.5 89.5q0 44 16 84t48 70t81 47.5t114 17.5z" />
    <glyph glyph-name="T" unicode="T" horiz-adv-x="687" 
d="M403 643v-643h-119v643h-266v105h651v-105h-266z" />
    <glyph glyph-name="U" unicode="U" horiz-adv-x="770" 
d="M692 291q0 -72 -21.5 -128.5t-61.5 -94.5t-97 -58t-127 -20q-71 0 -128 20t-96.5 58t-61 94.5t-21.5 128.5v457h119v-455q0 -98 48.5 -147.5t139.5 -49.5q89 0 138.5 49.5t49.5 147.5v455h119v-457z" />
    <glyph glyph-name="V" unicode="V" horiz-adv-x="762" 
d="M331 0l-314 748h130l234 -562l234 562h131l-315 -748h-100z" />
    <glyph glyph-name="W" unicode="W" horiz-adv-x="1121" 
d="M744 0l-183 529l-182 -529h-101l-261 748h128l185 -537l182 537h98l183 -537l184 537h128l-261 -748h-100z" />
    <glyph glyph-name="X" unicode="X" horiz-adv-x="707" 
d="M685 0h-138l-193 301l-194 -301h-138l244 380l-232 368h137l183 -288l182 288h137l-232 -368z" />
    <glyph glyph-name="Y" unicode="Y" horiz-adv-x="715" 
d="M417 0h-118v301l-284 447h138l205 -329l204 329h138l-283 -447v-301z" />
    <glyph glyph-name="Z" unicode="Z" horiz-adv-x="621" 
d="M188 106h398v-106h-550v90l388 553h-378v105h531v-90z" />
    <glyph glyph-name="bracketleft" unicode="[" horiz-adv-x="283" 
d="M168 624v-607h94v-94h-206v795h206v-94h-94z" />
    <glyph glyph-name="backslash" unicode="\" horiz-adv-x="390" 
d="M264 -67l-255 815h117l255 -815h-117z" />
    <glyph glyph-name="bracketright" unicode="]" horiz-adv-x="283" 
d="M22 -77v94h94v607h-94v94h206v-795h-206z" />
    <glyph glyph-name="asciicircum" unicode="^" horiz-adv-x="573" 
d="M417 373l-130 215l-131 -215h-127l258 391l257 -391h-127z" />
    <glyph glyph-name="underscore" unicode="_" horiz-adv-x="686" 
d="M45 -106v106h596v-106h-596z" />
    <glyph glyph-name="grave" unicode="`" horiz-adv-x="250" 
d="M148 596l-134 191h128l94 -191h-88z" />
    <glyph glyph-name="a" unicode="a" horiz-adv-x="548" 
d="M267 522q100 0 152.5 -52t52.5 -151v-319h-113v46q-27 -26 -61.5 -41t-77.5 -15q-77 0 -124 39t-47 111q0 41 14.5 69.5t40 47t60 27.5t73.5 11l122 7v15q0 50 -21.5 78.5t-69.5 28.5t-70 -26t-22 -61l-113 4q0 34 14 66.5t40 58t64 41t86 15.5zM253 208
q-40 -2 -65.5 -16.5t-25.5 -49.5q0 -32 21.5 -45t55.5 -13q54 0 87.5 27t33.5 86v18z" />
    <glyph glyph-name="b" unicode="b" horiz-adv-x="652" 
d="M193 451q21 30 63 50.5t100 20.5q54 0 99 -18.5t78 -53t51.5 -84t18.5 -110.5t-18.5 -110.5t-51.5 -84t-78 -53t-99 -18.5q-60 0 -104 23t-65 58v-71h-106v777h112v-326zM338 426q-63 0 -104 -40t-41 -116v-27q0 -77 41 -116.5t104 -39.5q33 0 60.5 11t47.5 32.5t31.5 53
t11.5 72.5t-11.5 72.5t-31.5 53.5t-47.5 33t-60.5 11z" />
    <glyph glyph-name="c" unicode="c" horiz-adv-x="584" 
d="M306 522q46 0 86.5 -13.5t71.5 -38.5t51.5 -61t26.5 -81l-110 -10q-6 51 -40.5 79.5t-85.5 28.5q-63 0 -103 -44t-40 -126q0 -41 11 -72t30 -53t45 -33t57 -11q53 0 86 27t41 75l110 -10q-8 -44 -28 -79t-51 -59.5t-71 -37.5t-87 -13q-55 0 -102 18t-81.5 52t-54 83.5
t-19.5 112.5t19.5 112.5t53.5 83.5t81 52t103 18z" />
    <glyph glyph-name="d" unicode="d" horiz-adv-x="652" 
d="M465 0v71q-21 -35 -65 -58t-104 -23q-54 0 -99 18.5t-78 53t-51.5 84t-18.5 110.5t18.5 110.5t51.5 84t78 53t99 18.5q58 0 100 -20.5t63 -50.5v326h112v-777h-106zM314 426q-33 0 -60.5 -11t-47.5 -33t-31.5 -53.5t-11.5 -72.5t11.5 -72.5t31.5 -53t47.5 -32.5t60.5 -11
q63 0 104 39.5t41 116.5v27q0 76 -41 116t-104 40z" />
    <glyph glyph-name="e" unicode="e" horiz-adv-x="594" 
d="M168 214q5 -59 41.5 -93t95.5 -34q49 0 80 19t42 54l113 -6q-8 -34 -28 -64t-50.5 -52t-69.5 -35t-84 -13q-57 0 -104.5 18t-82 52.5t-53.5 84t-19 111.5q0 63 19 112t53 83.5t81 52.5t103 18q55 0 99.5 -17.5t75.5 -50.5t48 -80t17 -105v-55h-377zM304 426
q-57 0 -93.5 -32t-41.5 -92h263q-2 56 -33.5 90t-94.5 34z" />
    <glyph glyph-name="f" unicode="f" horiz-adv-x="359" 
d="M302 782q14 0 24 -0.5t20 -2.5v-97q-7 1 -14 1.5t-18 0.5q-43 0 -69.5 -26t-26.5 -71v-74h126v-97h-126v-416h-112v416h-97v97h97v71q0 93 53 145.5t143 52.5z" />
    <glyph glyph-name="g" unicode="g" horiz-adv-x="646" 
d="M296 522q60 0 104 -23t65 -58v72h106v-538q0 -55 -18 -99.5t-51 -75.5t-79.5 -47.5t-103.5 -16.5t-101 14t-75.5 38.5t-51.5 59t-27 76.5l112 4q8 -45 45.5 -71t94.5 -26q64 0 103.5 34.5t39.5 101.5v94q-21 -30 -63 -50.5t-100 -20.5q-54 0 -99 18.5t-78 53t-51.5 83.5
t-18.5 111q0 61 18.5 110.5t51.5 84t78 53t99 18.5zM314 425q-33 0 -60.5 -11t-47.5 -32.5t-31.5 -53t-11.5 -72.5t11.5 -72.5t31.5 -53.5t47.5 -33t60.5 -11q63 0 104 40t41 116v27q0 77 -41 116.5t-104 39.5z" />
    <glyph glyph-name="h" unicode="h" horiz-adv-x="609" 
d="M193 455q18 27 54 47t90 20q44 0 80.5 -14.5t63 -42t41.5 -67t15 -89.5v-309h-113v294q0 58 -30.5 91t-81.5 33q-54 0 -86.5 -35.5t-32.5 -89.5v-293h-112v777h112v-322z" />
    <glyph glyph-name="i" unicode="i" 
d="M137 761q29 0 50 -20.5t21 -49.5t-21 -49.5t-50 -20.5t-49.5 20.5t-20.5 49.5t20.5 49.5t49.5 20.5zM81 0v513h112v-513h-112z" />
    <glyph glyph-name="j" unicode="j" 
d="M137 761q29 0 50 -20.5t21 -49.5t-21 -49.5t-50 -20.5t-49.5 20.5t-20.5 49.5t20.5 49.5t49.5 20.5zM194 -64q0 -93 -51.5 -145t-139.5 -52q-14 0 -24 0.5t-21 2.5v98q13 -3 32 -3q42 0 67 25t25 71v580h112v-577z" />
    <glyph glyph-name="k" unicode="k" horiz-adv-x="557" 
d="M392 513h137l-206 -221l227 -292h-142l-164 208l-51 -52v-156h-112v777h112v-470z" />
    <glyph glyph-name="l" unicode="l" 
d="M81 0v777h112v-777h-112z" />
    <glyph glyph-name="m" unicode="m" horiz-adv-x="933" 
d="M665 522q43 0 78.5 -15t60.5 -43t39 -66.5t14 -86.5v-311h-113v294q0 58 -28 91t-79 33q-48 0 -77 -30t-34 -76v-3v-309h-113v294q0 58 -28.5 91t-74.5 33q-54 0 -85.5 -35.5t-31.5 -89.5v-293h-112v513h106v-68q20 34 55.5 55.5t92.5 21.5q54 0 96 -24t67 -69
q23 40 64.5 66.5t102.5 26.5z" />
    <glyph glyph-name="n" unicode="n" horiz-adv-x="613" 
d="M337 522q44 0 80.5 -14.5t63 -42t41.5 -67t15 -89.5v-309h-113v294q0 58 -30.5 91t-81.5 33q-54 0 -86.5 -35.5t-32.5 -89.5v-293h-112v513h106v-68q20 34 56.5 55.5t93.5 21.5z" />
    <glyph glyph-name="o" unicode="o" horiz-adv-x="634" 
d="M317 522q57 0 106 -18.5t84.5 -53t56 -84t20.5 -110.5t-20.5 -110t-56 -83.5t-84.5 -53.5t-106 -19t-106 19t-85 53.5t-56.5 83.5t-20.5 110t20.5 110.5t56.5 84t85 53t106 18.5zM317 426q-67 0 -110.5 -44.5t-43.5 -125.5q0 -80 43.5 -124.5t110.5 -44.5q33 0 61 11.5
t49 33t32.5 53t11.5 71.5t-11.5 71.5t-32.5 53.5t-49 33.5t-61 11.5z" />
    <glyph glyph-name="p" unicode="p" horiz-adv-x="652" 
d="M356 522q54 0 99 -18.5t78 -53t51.5 -84t18.5 -110.5q0 -62 -18.5 -111t-51.5 -83.5t-78 -53t-99 -18.5q-58 0 -100 20.5t-63 50.5v-316h-112v768h106v-72q21 35 65 58t104 23zM338 425q-63 0 -104 -39.5t-41 -116.5v-27q0 -76 41 -116t104 -40q33 0 60.5 11t47.5 33
t31.5 53.5t11.5 72.5t-11.5 72.5t-31.5 53t-47.5 32.5t-60.5 11z" />
    <glyph glyph-name="q" unicode="q" horiz-adv-x="652" 
d="M296 522q60 0 104 -23t65 -58v72h106v-768h-112v316q-21 -30 -63 -50.5t-100 -20.5q-54 0 -99 18.5t-78 53t-51.5 83.5t-18.5 111q0 61 18.5 110.5t51.5 84t78 53t99 18.5zM314 425q-33 0 -60.5 -11t-47.5 -32.5t-31.5 -53t-11.5 -72.5t11.5 -72.5t31.5 -53.5t47.5 -33
t60.5 -11q63 0 104 40t41 116v27q0 77 -41 116.5t-104 39.5z" />
    <glyph glyph-name="r" unicode="r" horiz-adv-x="357" 
d="M336 410q-33 0 -59.5 -10t-45 -27.5t-28.5 -41.5t-10 -52v-279h-112v513h109v-72q14 30 49 54t97 24v-109z" />
    <glyph glyph-name="s" unicode="s" horiz-adv-x="502" 
d="M246 522q46 0 81 -12.5t59.5 -34.5t38.5 -52t18 -64l-112 -6q-3 32 -24 52.5t-64 20.5q-40 0 -60 -15.5t-20 -41.5q0 -17 8 -26.5t22.5 -16t35 -11t46.5 -10.5q40 -10 72.5 -22t55.5 -29t36 -41.5t13 -58.5q0 -78 -53.5 -121t-147.5 -43q-93 0 -147 43.5t-63 120.5l112 7
q5 -35 29.5 -54.5t70.5 -19.5q38 0 62.5 14.5t24.5 43.5q0 16 -5.5 26.5t-18.5 18t-34.5 13.5t-52.5 14q-39 9 -71.5 19.5t-56.5 26.5t-37 40.5t-13 63.5q0 69 50.5 112t144.5 43z" />
    <glyph glyph-name="t" unicode="t" horiz-adv-x="378" 
d="M303 93q16 0 27.5 1.5t20.5 3.5v-100q-14 -2 -31 -4t-44 -2q-38 0 -69.5 9.5t-54 30t-34.5 51.5t-12 75l1 258h-95v97h95l1 174h113l-1 -174h130v-97h-131l-1 -235q0 -50 25 -69t60 -19z" />
    <glyph glyph-name="u" unicode="u" horiz-adv-x="596" 
d="M409 0v67q-14 -29 -49.5 -53t-95.5 -24q-44 0 -78.5 15t-59 42t-37.5 65t-13 85v316h112v-299q0 -56 26.5 -87.5t77.5 -31.5q26 0 46.5 10t35 27.5t22 40t7.5 47.5v293h112v-513h-106z" />
    <glyph glyph-name="v" unicode="v" horiz-adv-x="549" 
d="M230 0l-222 513h123l144 -343l142 343h124l-221 -513h-90z" />
    <glyph glyph-name="w" unicode="w" horiz-adv-x="832" 
d="M538 0l-122 325l-123 -325h-89l-196 513h121l123 -330l124 330h79l125 -330l123 330h121l-196 -513h-90z" />
    <glyph glyph-name="x" unicode="x" horiz-adv-x="532" 
d="M519 0h-134l-119 184l-120 -184h-131l166 263l-162 250h133l114 -176l112 176h133l-163 -252z" />
    <glyph glyph-name="y" unicode="y" horiz-adv-x="549" 
d="M89 -255l126 291l-203 477h125l138 -351l138 351h125l-326 -768h-123z" />
    <glyph glyph-name="z" unicode="z" horiz-adv-x="451" 
d="M164 91h255v-91h-386v74l246 347h-240v92h370v-75z" />
    <glyph glyph-name="braceleft" unicode="{" 
d="M246 624q-48 0 -63 -34t-1 -113q5 -29 7 -56t-3.5 -48t-19 -34.5t-40.5 -17.5q27 -5 40.5 -19t19 -35t3.5 -47.5t-7 -55.5q-14 -80 1 -113.5t63 -33.5h6v-94h-6q-48 0 -86 14.5t-62 43.5t-31.5 72t4.5 101q7 30 10.5 52.5t0 37.5t-16.5 22.5t-38 7.5h-8v93h8q25 0 38 7.5
t16.5 22.5t0 37.5t-10.5 52.5q-12 58 -4.5 101t31.5 72t62 43.5t86 14.5h6v-94h-6z" />
    <glyph glyph-name="bar" unicode="|" horiz-adv-x="269" 
d="M78 -67v815h112v-815h-112z" />
    <glyph glyph-name="braceright" unicode="}" 
d="M28 718q48 0 86 -14.5t62 -43.5t31.5 -72t-4.5 -101q-7 -30 -10.5 -52.5t0 -37.5t16 -22.5t38.5 -7.5h8v-93h-8q-26 0 -38.5 -7.5t-16 -22.5t0 -37.5t10.5 -52.5q12 -58 4.5 -101t-31.5 -72t-62 -43.5t-86 -14.5h-6v94h6q48 0 63 33.5t1 113.5q-5 29 -7 55.5t3.5 47.5
t19 35t40.5 19q-27 4 -40.5 17.5t-19 34.5t-3.5 48t7 56q14 79 -1 113t-63 34h-6v94h6z" />
    <glyph glyph-name="asciitilde" unicode="~" horiz-adv-x="539" 
d="M523 376q-32 -41 -68 -64.5t-87 -23.5q-33 0 -56.5 9.5t-44.5 20.5t-41.5 20.5t-46.5 9.5q-37 0 -61.5 -13t-50.5 -43l-51 75q32 41 67 63.5t85 22.5q29 0 51 -9.5t43 -20.5t43 -20.5t52 -9.5q38 0 64 13.5t51 43.5z" />
    <glyph glyph-name="exclamdown" unicode="&#xa1;" horiz-adv-x="299" 
d="M151 366q-30 0 -51.5 21t-21.5 52q0 29 21.5 50t51.5 21q29 0 50 -21t21 -50q0 -31 -21 -52t-50 -21zM210 286l6 -534h-131l6 534h119z" />
    <glyph glyph-name="cent" unicode="&#xa2;" horiz-adv-x="584" 
d="M543 179q-14 -78 -65 -126.5t-128 -59.5v-111h-94v112q-45 7 -83 28.5t-65.5 54.5t-43 78t-15.5 101t15 101t42.5 78.5t65.5 54t84 28.5v109h94v-108q76 -12 128.5 -61.5t63.5 -129.5l-110 -10q-6 51 -40.5 79.5t-85.5 28.5q-63 0 -103 -44t-40 -126q0 -41 11 -72t30 -53
t45 -33t57 -11q53 0 86 27t41 75z" />
    <glyph glyph-name="sterling" unicode="&#xa3;" horiz-adv-x="555" 
d="M530 0h-498v97q60 19 82.5 63.5t15.5 125.5l-3 32h-99v94h91l-7 88q-11 121 39.5 189.5t164.5 68.5q100 0 151 -52.5t53 -140.5l-118 -6q0 42 -21.5 68t-66.5 26q-52 0 -74 -34.5t-17 -97.5l9 -109h163v-94h-155l3 -34q6 -67 -14 -108.5t-52 -69.5h353v-106z" />
    <glyph glyph-name="currency" unicode="&#xa4;" horiz-adv-x="594" 
d="M480 252q0 -59 -23 -105l115 -115l-71 -70l-115 114q-38 -21 -89 -21q-48 0 -89 22l-115 -115l-71 70l116 116q-11 23 -17.5 49t-6.5 55q0 59 25 104l-117 117l71 71l116 -116q41 22 88 22t88 -22l116 116l71 -71l-116 -116q11 -23 17.5 -49t6.5 -56zM205 252
q0 -57 25.5 -87t66.5 -30q40 0 65.5 31t25.5 86q0 56 -25.5 87t-65.5 31q-41 0 -66.5 -31t-25.5 -87z" />
    <glyph glyph-name="yen" unicode="&#xa5;" horiz-adv-x="715" 
d="M555 351v-70h-138v-80h138v-71h-138v-130h-118v130h-138v71h138v80h-138v70h106l-252 397h138l205 -329l204 329h138l-251 -397h106z" />
    <glyph glyph-name="brokenbar" unicode="&#xa6;" horiz-adv-x="269" 
d="M78 429v319h112v-319h-112zM78 -67v319h112v-319h-112z" />
    <glyph glyph-name="section" unicode="&#xa7;" horiz-adv-x="522" 
d="M416 254q29 -18 44.5 -45.5t15.5 -70.5q0 -38 -15 -68.5t-43 -52.5t-67.5 -33.5t-88.5 -11.5q-101 0 -160.5 43t-59.5 120l112 5q1 -39 29.5 -59t79.5 -20q45 0 73 17.5t28 53.5q0 18 -7.5 30t-22.5 20.5t-38 15t-53 13.5q-45 9 -81.5 21.5t-62.5 31.5t-40.5 45t-14.5 64
q0 43 17 69t46 46q-25 17 -38.5 43.5t-13.5 66.5q0 37 14 66.5t40.5 50.5t63 32t81.5 11q96 0 150.5 -41t55.5 -113l-112 -4q-1 35 -25 52t-68 17q-38 0 -63 -16.5t-25 -51.5q0 -34 27 -47t83 -25q46 -10 83 -22.5t63 -31.5t39.5 -45t13.5 -63q0 -43 -16 -68t-44 -45z
M147 378q0 -20 9.5 -32.5t27 -21t43 -14.5t58.5 -13q22 -5 42 -9q21 14 33 30.5t12 43.5q0 20 -9 32.5t-27 21t-43.5 14.5t-58.5 13q-11 2 -21 4.5t-20 5.5q-21 -14 -33.5 -31t-12.5 -44z" />
    <glyph glyph-name="dieresis" unicode="&#xa8;" horiz-adv-x="328" 
d="M80 743q26 0 45 -18.5t19 -44.5q0 -27 -19 -45t-45 -18q-27 0 -45.5 18t-18.5 45q0 26 18.5 44.5t45.5 18.5zM248 743q27 0 45.5 -18.5t18.5 -44.5q0 -27 -18.5 -45t-45.5 -18q-26 0 -45 18t-19 45q0 26 19 44.5t45 18.5z" />
    <glyph glyph-name="copyright" unicode="&#xa9;" horiz-adv-x="588" 
d="M295 760q56 0 104.5 -19.5t84 -53.5t55.5 -80.5t20 -100.5t-20 -100.5t-55.5 -80.5t-84 -53.5t-104.5 -19.5q-57 0 -106 19.5t-84.5 53.5t-55.5 80.5t-20 100.5t20 100.5t55.5 80.5t84.5 53.5t106 19.5zM294 720q-48 0 -88.5 -16t-69.5 -44.5t-45.5 -68t-16.5 -85.5
q0 -47 16.5 -86t45.5 -67.5t69.5 -44.5t88.5 -16t88 16t69.5 44.5t46 67.5t16.5 86q0 46 -16.5 85.5t-46 68t-69.5 44.5t-88 16zM295 663q55 0 94 -30t47 -84l-64 -4q-5 31 -26.5 47t-51.5 16q-38 0 -62 -26.5t-24 -74.5q0 -49 25.5 -75t61.5 -26q29 0 50.5 15.5t26.5 44.5
l65 -4q-9 -52 -47.5 -82t-93.5 -30q-32 0 -60 11t-48.5 31t-32 49.5t-11.5 65.5q0 37 11.5 66t32 49t48 30.5t59.5 10.5z" />
    <glyph glyph-name="ordfeminine" unicode="&#xaa;" horiz-adv-x="448" 
d="M221 756q169 0 169 -163v-256h-95v40q-16 -20 -48 -34t-74 -14q-63 0 -99.5 30.5t-36.5 88.5q0 33 13.5 56.5t36.5 38.5t54.5 22.5t66.5 9.5l81 5v20q0 32 -17.5 51t-50.5 19q-38 0 -56 -20t-18 -45l-99 3q0 27 11.5 53.5t34 47.5t54.5 34t73 13zM216 506
q-35 -2 -56 -14.5t-21 -38.5q0 -24 15 -35t41 -12q17 0 34 5t30.5 15.5t22 27.5t8.5 41v16z" />
    <glyph glyph-name="guillemotleft" unicode="&#xab;" horiz-adv-x="553" 
d="M141 256l135 -171l-89 -56l-172 227l172 226l89 -56zM399 256l135 -171l-89 -56l-172 227l172 226l89 -56z" />
    <glyph glyph-name="logicalnot" unicode="&#xac;" horiz-adv-x="576" 
d="M446 157v185h-410v88h498v-273h-88z" />
    <glyph glyph-name="registered" unicode="&#xae;" horiz-adv-x="588" 
d="M295 760q56 0 104.5 -19.5t84 -53.5t55.5 -80.5t20 -100.5t-20 -100.5t-55.5 -80.5t-84 -53.5t-104.5 -19.5q-57 0 -106 19.5t-84.5 53.5t-55.5 80.5t-20 100.5t20 100.5t55.5 80.5t84.5 53.5t106 19.5zM294 292q48 0 88 16t69.5 44.5t46 67.5t16.5 86q0 46 -16.5 85.5
t-46 68t-69.5 44.5t-88 16t-88.5 -16t-69.5 -44.5t-45.5 -68t-16.5 -85.5q0 -47 16.5 -86t45.5 -67.5t69.5 -44.5t88.5 -16zM410 563q0 -32 -12.5 -53.5t-34.5 -32.5l62 -124h-69l-56 113h-55v-113h-62v306h131q42 0 69 -24.5t27 -71.5zM297 517q21 0 35 10.5t14 35.5
q0 24 -14 34.5t-35 10.5h-52v-91h52z" />
    <glyph glyph-name="macron" unicode="&#xaf;" horiz-adv-x="304" 
d="M12 628v87h279v-87h-279z" />
    <glyph glyph-name="degree" unicode="&#xb0;" horiz-adv-x="360" 
d="M180 757q67 0 109.5 -37.5t42.5 -106.5v-22q0 -69 -42.5 -106.5t-109.5 -37.5t-109 37.5t-42 106.5v22q0 69 41.5 106.5t109.5 37.5zM180 688q-34 0 -54 -20.5t-20 -58.5v-14q0 -38 20 -58.5t54 -20.5q33 0 53.5 20.5t20.5 58.5v14q0 38 -20.5 58.5t-53.5 20.5z" />
    <glyph glyph-name="plusminus" unicode="&#xb1;" horiz-adv-x="547" 
d="M515 526v-102h-187v-192h-109v192h-187v102h187v188h109v-188h187zM32 69v105h483v-105h-483z" />
    <glyph glyph-name="acute" unicode="&#xb4;" horiz-adv-x="250" 
d="M14 596l95 191h127l-134 -191h-88z" />
    <glyph glyph-name="paragraph" unicode="&#xb6;" horiz-adv-x="686" 
d="M598 664v-731h-88v731h-115v-731h-87v441h-59q-46 0 -84.5 12t-66 35.5t-43 58.5t-15.5 82q0 46 15.5 81t43 58t66 35t84.5 12h418v-84h-69z" />
    <glyph glyph-name="periodcentered" unicode="&#xb7;" horiz-adv-x="240" 
d="M113 380q30 0 51.5 -21t21.5 -52q0 -29 -21.5 -50t-51.5 -21q-29 0 -50 21t-21 50q0 31 21 52t50 21z" />
    <glyph glyph-name="cedilla" unicode="&#xb8;" 
d="M144 -40q45 -5 76.5 -29t31.5 -70q0 -28 -11.5 -48.5t-30 -34t-43 -20t-50.5 -6.5q-55 0 -95 19l19 68q26 -17 66 -17q22 0 41.5 8.5t19.5 31.5q0 24 -19 33t-49 9q-11 0 -18.5 -1t-15.5 -3l32 110h58z" />
    <glyph glyph-name="ordmasculine" unicode="&#xba;" horiz-adv-x="509" 
d="M254 756q46 0 86 -15t68.5 -43t45 -67.5t16.5 -88.5t-16.5 -88.5t-45 -67t-68.5 -42.5t-86 -15q-47 0 -86.5 15t-68 42.5t-45 67t-16.5 88.5t16.5 88.5t45 67.5t68 43t86.5 15zM254 670q-50 0 -82 -34t-32 -94t32 -93.5t82 -33.5q51 0 83.5 33.5t32.5 93.5t-32.5 94
t-83.5 34z" />
    <glyph glyph-name="guillemotright" unicode="&#xbb;" horiz-adv-x="553" 
d="M108 29l-89 56l135 171l-135 170l89 56l172 -226zM365 29l-89 56l135 171l-135 170l89 56l172 -226z" />
    <glyph glyph-name="onequarter" unicode="&#xbc;" horiz-adv-x="711" 
d="M29 0l518 748h115l-518 -748h-115zM100 322v297l-60 -45l-37 70l129 89h55v-411h-87zM693 156v-78h-55v-78h-87v78h-172v68l176 265h83v-255h55zM552 156v137l-96 -137h96z" />
    <glyph glyph-name="onehalf" unicode="&#xbd;" horiz-adv-x="751" 
d="M29 0l518 748h115l-518 -748h-115zM100 322v297l-60 -45l-37 70l129 89h55v-411h-87zM591 417q68 0 100 -36t32 -92q0 -45 -19.5 -79t-49.5 -67l-62 -66h134v-77h-264v60l129 137q22 23 33.5 43.5t11.5 49.5q0 23 -11 36.5t-32 13.5q-23 0 -35.5 -14.5t-12.5 -41.5l-85 5
q1 60 36 94t95 34z" />
    <glyph glyph-name="threequarters" unicode="&#xbe;" horiz-adv-x="796" 
d="M114 0l518 748h115l-518 -748h-115zM160 738q62 0 95.5 -31.5t33.5 -87.5q0 -33 -15 -53.5t-37 -31.5q25 -9 42 -32.5t17 -59.5q0 -60 -38 -93.5t-98 -33.5q-66 0 -100 34t-36 91l87 6q2 -25 14 -39t35 -14t36 13t13 38q0 26 -15 38t-39 12h-42v74h41q20 0 35 12t15 35
t-12 34.5t-32 11.5q-43 0 -45 -50l-85 5q1 57 34 89.5t96 32.5zM778 156v-78h-55v-78h-87v78h-172v68l176 265h83v-255h55zM637 156v137l-96 -137h96z" />
    <glyph glyph-name="questiondown" unicode="&#xbf;" horiz-adv-x="516" 
d="M261 379q-30 0 -51.5 21t-21.5 52q0 29 21.5 50t51.5 21q29 0 50 -21t21 -50q0 -31 -21 -52t-50 -21zM257 -246q-56 0 -100.5 16t-75 45t-47 69.5t-16.5 89.5q0 32 8 57t22 45t33 37t40 33q39 30 59 57t20 67v29h119v-34q0 -50 -26 -86.5t-70 -72.5q-37 -29 -60 -57.5
t-23 -72.5q0 -52 30.5 -84.5t86.5 -32.5t87 31t36 85l119 -8q-3 -49 -21 -88.5t-49.5 -67t-75 -42.5t-96.5 -15z" />
    <glyph glyph-name="Agrave" unicode="&#xc0;" horiz-adv-x="759" 
d="M323 795l-190 147h155l139 -147h-104zM615 0l-69 167h-334l-70 -167h-130l316 748h101l317 -748h-131zM501 273l-121 291l-122 -291h243z" />
    <glyph glyph-name="Aacute" unicode="&#xc1;" horiz-adv-x="759" 
d="M327 795l139 147h155l-190 -147h-104zM615 0l-69 167h-334l-70 -167h-130l316 748h101l317 -748h-131zM501 273l-121 291l-122 -291h243z" />
    <glyph glyph-name="Acircumflex" unicode="&#xc2;" horiz-adv-x="759" 
d="M456 795l-76 84l-77 -84h-95l118 150h108l118 -150h-96zM615 0l-69 167h-334l-70 -167h-130l316 748h101l317 -748h-131zM501 273l-121 291l-122 -291h243z" />
    <glyph glyph-name="Atilde" unicode="&#xc3;" horiz-adv-x="759" 
d="M306 946q24 0 41.5 -9t32.5 -20t29.5 -20t31.5 -9q23 0 34 14.5t12 36.5h64q2 -27 -4 -51t-19 -43t-32 -30t-43 -11t-41.5 9t-32.5 19.5t-29.5 19.5t-31.5 9q-23 0 -34 -14t-11 -36h-65q-2 27 4 51t18.5 43t32 30t43.5 11zM615 0l-69 167h-334l-70 -167h-130l316 748h101
l317 -748h-131zM501 273l-121 291l-122 -291h243z" />
    <glyph glyph-name="Adieresis" unicode="&#xc4;" horiz-adv-x="759" 
d="M297 936q26 0 45 -18.5t19 -44.5q0 -27 -19 -45.5t-45 -18.5q-27 0 -45.5 18.5t-18.5 45.5q0 26 18.5 44.5t45.5 18.5zM465 936q27 0 45.5 -18.5t18.5 -44.5q0 -27 -18.5 -45.5t-45.5 -18.5q-26 0 -45 18.5t-19 45.5q0 26 19 44.5t45 18.5zM615 0l-69 167h-334l-70 -167
h-130l316 748h101l317 -748h-131zM501 273l-121 291l-122 -291h243z" />
    <glyph glyph-name="Aring" unicode="&#xc5;" horiz-adv-x="759" 
d="M380 997q22 0 41.5 -7.5t34 -21t23 -32.5t8.5 -41q0 -45 -31 -73.5t-76 -28.5q-46 0 -77.5 28.5t-31.5 73.5t31.5 73.5t77.5 28.5zM380 940q-21 0 -34 -12.5t-13 -32.5t13 -32.5t34 -12.5q20 0 32.5 12.5t12.5 32.5t-12.5 32.5t-32.5 12.5zM615 0l-69 167h-334l-70 -167
h-130l316 748h101l317 -748h-131zM501 273l-121 291l-122 -291h243z" />
    <glyph glyph-name="AE" unicode="&#xc6;" horiz-adv-x="1034" 
d="M641 437h307v-103h-307v-228h351v-106h-470v167h-259l-111 -167h-145l501 748h484v-105h-351v-206zM522 559l-189 -286h189v286z" />
    <glyph glyph-name="Ccedilla" unicode="&#xc7;" horiz-adv-x="816" 
d="M774 263q-11 -61 -39 -110t-70.5 -84t-97 -55t-117.5 -23l-9 -36q45 -5 76.5 -29t31.5 -70q0 -28 -11.5 -48.5t-30 -34t-43 -20t-50.5 -6.5q-55 0 -95 19l19 68q26 -17 66 -17q22 0 41.5 8.5t19.5 31.5q0 24 -19 33t-49 9q-11 0 -18.5 -1t-15.5 -3l28 96q-74 6 -136 34.5
t-107 77.5t-70 117t-25 154q0 91 28 162.5t78 120.5t118 75t149 26q67 0 126 -19.5t105 -55.5t76.5 -88t39.5 -117l-124 -11q-15 90 -76.5 137.5t-150.5 47.5q-55 0 -100.5 -19t-78.5 -55t-51 -87.5t-18 -116.5q0 -68 19 -120t53 -87t79 -53t98 -18q88 0 149 45.5t77 132.5z
" />
    <glyph glyph-name="Egrave" unicode="&#xc8;" horiz-adv-x="597" 
d="M266 795l-190 147h155l139 -147h-104zM203 643v-206h307v-103h-307v-228h351v-106h-470v748h470v-105h-351z" />
    <glyph glyph-name="Eacute" unicode="&#xc9;" horiz-adv-x="597" 
d="M270 795l139 147h155l-190 -147h-104zM203 643v-206h307v-103h-307v-228h351v-106h-470v748h470v-105h-351z" />
    <glyph glyph-name="Ecircumflex" unicode="&#xca;" horiz-adv-x="597" 
d="M399 795l-76 84l-77 -84h-95l118 150h108l118 -150h-96zM203 643v-206h307v-103h-307v-228h351v-106h-470v748h470v-105h-351z" />
    <glyph glyph-name="Edieresis" unicode="&#xcb;" horiz-adv-x="597" 
d="M240 936q26 0 45 -18.5t19 -44.5q0 -27 -19 -45.5t-45 -18.5q-27 0 -45.5 18.5t-18.5 45.5q0 26 18.5 44.5t45.5 18.5zM408 936q27 0 45.5 -18.5t18.5 -44.5q0 -27 -18.5 -45.5t-45.5 -18.5q-26 0 -45 18.5t-19 45.5q0 26 19 44.5t45 18.5zM203 643v-206h307v-103h-307
v-228h351v-106h-470v748h470v-105h-351z" />
    <glyph glyph-name="Igrave" unicode="&#xcc;" horiz-adv-x="286" 
d="M90 795l-190 147h155l139 -147h-104zM84 0v748h119v-748h-119z" />
    <glyph glyph-name="Iacute" unicode="&#xcd;" horiz-adv-x="286" 
d="M94 795l139 147h155l-190 -147h-104zM84 0v748h119v-748h-119z" />
    <glyph glyph-name="Icircumflex" unicode="&#xce;" horiz-adv-x="286" 
d="M223 795l-76 84l-77 -84h-95l118 150h108l118 -150h-96zM84 0v748h119v-748h-119z" />
    <glyph glyph-name="Idieresis" unicode="&#xcf;" horiz-adv-x="286" 
d="M64 936q26 0 45 -18.5t19 -44.5q0 -27 -19 -45.5t-45 -18.5q-27 0 -45.5 18.5t-18.5 45.5q0 26 18.5 44.5t45.5 18.5zM232 936q27 0 45.5 -18.5t18.5 -44.5q0 -27 -18.5 -45.5t-45.5 -18.5q-26 0 -45 18.5t-19 45.5q0 26 19 44.5t45 18.5zM84 0v748h119v-748h-119z" />
    <glyph glyph-name="Eth" unicode="&#xd0;" horiz-adv-x="799" 
d="M402 748q78 0 145 -25.5t116 -73.5t76.5 -117.5t27.5 -157.5q0 -89 -28 -158.5t-77 -117.5t-116.5 -73t-145.5 -25h-297v328h-98v91h98v329h299zM401 102q54 0 99.5 17.5t78.5 51.5t51 85t18 118t-18 118t-50.5 85t-77.5 51.5t-100 17.5h-181v-227h132v-91h-132v-226h180
z" />
    <glyph glyph-name="Ntilde" unicode="&#xd1;" horiz-adv-x="756" 
d="M300 946q24 0 41.5 -9t32.5 -20t29.5 -20t31.5 -9q23 0 34 14.5t12 36.5h64q2 -27 -4 -51t-19 -43t-32 -30t-43 -11t-41.5 9t-32.5 19.5t-29.5 19.5t-31.5 9q-23 0 -34 -14t-11 -36h-65q-2 27 4 51t18.5 43t32 30t43.5 11zM572 0l-369 528v-528h-119v748h100l370 -529
v529h119v-748h-101z" />
    <glyph glyph-name="Ograve" unicode="&#xd2;" horiz-adv-x="870" 
d="M371 795l-190 147h155l139 -147h-104zM435 758q81 0 151 -26.5t121 -76.5t80 -121t29 -160t-29 -160t-80 -121t-121 -76.5t-151 -26.5q-82 0 -152 26.5t-121 76.5t-80 121t-29 160t29 160t80 121t121 76.5t152 26.5zM435 652q-56 0 -104 -19t-83 -54.5t-54.5 -87
t-19.5 -117.5q0 -65 19.5 -116.5t54.5 -87.5t83 -55t104 -19t103.5 19t82.5 55t54.5 87.5t19.5 116.5q0 66 -19.5 117.5t-54.5 87t-82.5 54.5t-103.5 19z" />
    <glyph glyph-name="Oacute" unicode="&#xd3;" horiz-adv-x="870" 
d="M375 795l139 147h155l-190 -147h-104zM435 758q81 0 151 -26.5t121 -76.5t80 -121t29 -160t-29 -160t-80 -121t-121 -76.5t-151 -26.5q-82 0 -152 26.5t-121 76.5t-80 121t-29 160t29 160t80 121t121 76.5t152 26.5zM435 652q-56 0 -104 -19t-83 -54.5t-54.5 -87
t-19.5 -117.5q0 -65 19.5 -116.5t54.5 -87.5t83 -55t104 -19t103.5 19t82.5 55t54.5 87.5t19.5 116.5q0 66 -19.5 117.5t-54.5 87t-82.5 54.5t-103.5 19z" />
    <glyph glyph-name="Ocircumflex" unicode="&#xd4;" horiz-adv-x="870" 
d="M504 795l-76 84l-77 -84h-95l118 150h108l118 -150h-96zM435 758q81 0 151 -26.5t121 -76.5t80 -121t29 -160t-29 -160t-80 -121t-121 -76.5t-151 -26.5q-82 0 -152 26.5t-121 76.5t-80 121t-29 160t29 160t80 121t121 76.5t152 26.5zM435 652q-56 0 -104 -19t-83 -54.5
t-54.5 -87t-19.5 -117.5q0 -65 19.5 -116.5t54.5 -87.5t83 -55t104 -19t103.5 19t82.5 55t54.5 87.5t19.5 116.5q0 66 -19.5 117.5t-54.5 87t-82.5 54.5t-103.5 19z" />
    <glyph glyph-name="Otilde" unicode="&#xd5;" horiz-adv-x="870" 
d="M354 946q24 0 41.5 -9t32.5 -20t29.5 -20t31.5 -9q23 0 34 14.5t12 36.5h64q2 -27 -4 -51t-19 -43t-32 -30t-43 -11t-41.5 9t-32.5 19.5t-29.5 19.5t-31.5 9q-23 0 -34 -14t-11 -36h-65q-2 27 4 51t18.5 43t32 30t43.5 11zM435 758q81 0 151 -26.5t121 -76.5t80 -121
t29 -160t-29 -160t-80 -121t-121 -76.5t-151 -26.5q-82 0 -152 26.5t-121 76.5t-80 121t-29 160t29 160t80 121t121 76.5t152 26.5zM435 652q-56 0 -104 -19t-83 -54.5t-54.5 -87t-19.5 -117.5q0 -65 19.5 -116.5t54.5 -87.5t83 -55t104 -19t103.5 19t82.5 55t54.5 87.5
t19.5 116.5q0 66 -19.5 117.5t-54.5 87t-82.5 54.5t-103.5 19z" />
    <glyph glyph-name="Odieresis" unicode="&#xd6;" horiz-adv-x="870" 
d="M345 936q26 0 45 -18.5t19 -44.5q0 -27 -19 -45.5t-45 -18.5q-27 0 -45.5 18.5t-18.5 45.5q0 26 18.5 44.5t45.5 18.5zM513 936q27 0 45.5 -18.5t18.5 -44.5q0 -27 -18.5 -45.5t-45.5 -18.5q-26 0 -45 18.5t-19 45.5q0 26 19 44.5t45 18.5zM435 758q81 0 151 -26.5
t121 -76.5t80 -121t29 -160t-29 -160t-80 -121t-121 -76.5t-151 -26.5q-82 0 -152 26.5t-121 76.5t-80 121t-29 160t29 160t80 121t121 76.5t152 26.5zM435 652q-56 0 -104 -19t-83 -54.5t-54.5 -87t-19.5 -117.5q0 -65 19.5 -116.5t54.5 -87.5t83 -55t104 -19t103.5 19
t82.5 55t54.5 87.5t19.5 116.5q0 66 -19.5 117.5t-54.5 87t-82.5 54.5t-103.5 19z" />
    <glyph glyph-name="multiply" unicode="&#xd7;" horiz-adv-x="535" 
d="M342 370l145 -145l-74 -75l-146 145l-146 -146l-74 75l146 146l-145 145l74 75l145 -146l144 144l75 -75z" />
    <glyph glyph-name="Oslash" unicode="&#xd8;" horiz-adv-x="856" 
d="M703 659q53 -51 83 -122.5t30 -162.5q0 -89 -29 -160t-80 -121t-121 -76.5t-151 -26.5q-115 0 -205 52l-63 -83l-73 55l64 83q-50 51 -77.5 120t-27.5 157q0 89 29 160t80 121t121 76.5t152 26.5q107 0 194 -46l60 79l73 -55zM174 374q0 -57 14.5 -102.5t41.5 -80.5
l331 432q-56 29 -126 29q-56 0 -104 -19t-83 -54.5t-54.5 -87t-19.5 -117.5zM435 96q56 0 103.5 19t82.5 55t54.5 87.5t19.5 116.5q0 60 -17 108.5t-46 83.5l-334 -435q59 -35 137 -35z" />
    <glyph glyph-name="Ugrave" unicode="&#xd9;" horiz-adv-x="770" 
d="M328 795l-190 147h155l139 -147h-104zM692 291q0 -72 -21.5 -128.5t-61.5 -94.5t-97 -58t-127 -20q-71 0 -128 20t-96.5 58t-61 94.5t-21.5 128.5v457h119v-455q0 -98 48.5 -147.5t139.5 -49.5q89 0 138.5 49.5t49.5 147.5v455h119v-457z" />
    <glyph glyph-name="Uacute" unicode="&#xda;" horiz-adv-x="770" 
d="M332 795l139 147h155l-190 -147h-104zM692 291q0 -72 -21.5 -128.5t-61.5 -94.5t-97 -58t-127 -20q-71 0 -128 20t-96.5 58t-61 94.5t-21.5 128.5v457h119v-455q0 -98 48.5 -147.5t139.5 -49.5q89 0 138.5 49.5t49.5 147.5v455h119v-457z" />
    <glyph glyph-name="Ucircumflex" unicode="&#xdb;" horiz-adv-x="770" 
d="M461 795l-76 84l-77 -84h-95l118 150h108l118 -150h-96zM692 291q0 -72 -21.5 -128.5t-61.5 -94.5t-97 -58t-127 -20q-71 0 -128 20t-96.5 58t-61 94.5t-21.5 128.5v457h119v-455q0 -98 48.5 -147.5t139.5 -49.5q89 0 138.5 49.5t49.5 147.5v455h119v-457z" />
    <glyph glyph-name="Udieresis" unicode="&#xdc;" horiz-adv-x="770" 
d="M302 936q26 0 45 -18.5t19 -44.5q0 -27 -19 -45.5t-45 -18.5q-27 0 -45.5 18.5t-18.5 45.5q0 26 18.5 44.5t45.5 18.5zM470 936q27 0 45.5 -18.5t18.5 -44.5q0 -27 -18.5 -45.5t-45.5 -18.5q-26 0 -45 18.5t-19 45.5q0 26 19 44.5t45 18.5zM692 291q0 -72 -21.5 -128.5
t-61.5 -94.5t-97 -58t-127 -20q-71 0 -128 20t-96.5 58t-61 94.5t-21.5 128.5v457h119v-455q0 -98 48.5 -147.5t139.5 -49.5q89 0 138.5 49.5t49.5 147.5v455h119v-457z" />
    <glyph glyph-name="Yacute" unicode="&#xdd;" horiz-adv-x="715" 
d="M305 795l139 147h155l-190 -147h-104zM417 0h-118v301l-284 447h138l205 -329l204 329h138l-283 -447v-301z" />
    <glyph glyph-name="Thorn" unicode="&#xde;" horiz-adv-x="644" 
d="M376 648q51 0 94 -15t74.5 -44.5t49 -72.5t17.5 -99t-17.5 -99t-49 -72.5t-74.5 -45t-94 -15.5h-173v-185h-119v748h119v-100h173zM202 291h159q27 0 50 8t40.5 24t27.5 39.5t10 54.5t-10 54.5t-27.5 39t-40.5 23.5t-50 8h-159v-251z" />
    <glyph glyph-name="germandbls" unicode="&#xdf;" horiz-adv-x="645" 
d="M301 785q51 0 91.5 -12t69.5 -34t44.5 -53t15.5 -68q0 -38 -14 -61.5t-30.5 -41.5t-30.5 -35t-14 -41q0 -19 12.5 -34.5t30.5 -30t40 -30.5t40 -38t30.5 -52t12.5 -71q0 -46 -17 -81.5t-47 -60t-70.5 -37t-87.5 -12.5q-35 0 -60 5t-44 13l22 90q16 -6 33 -10t39 -4
q51 0 84.5 27.5t33.5 79.5q0 29 -12.5 51t-30.5 39.5t-40 33t-40 32.5t-30.5 38t-12.5 50q0 34 14 55.5t30.5 37t30.5 30.5t14 38q0 42 -27 66.5t-78 24.5t-81.5 -29.5t-30.5 -80.5v-579h-112v582q0 46 16 83.5t45 64t70 41t91 14.5z" />
    <glyph glyph-name="agrave" unicode="&#xe0;" horiz-adv-x="548" 
d="M231 596l-134 191h128l94 -191h-88zM267 522q100 0 152.5 -52t52.5 -151v-319h-113v46q-27 -26 -61.5 -41t-77.5 -15q-77 0 -124 39t-47 111q0 41 14.5 69.5t40 47t60 27.5t73.5 11l122 7v15q0 50 -21.5 78.5t-69.5 28.5t-70 -26t-22 -61l-113 4q0 34 14 66.5t40 58
t64 41t86 15.5zM253 208q-40 -2 -65.5 -16.5t-25.5 -49.5q0 -32 21.5 -45t55.5 -13q54 0 87.5 27t33.5 86v18z" />
    <glyph glyph-name="aacute" unicode="&#xe1;" horiz-adv-x="548" 
d="M232 596l95 191h127l-134 -191h-88zM267 522q100 0 152.5 -52t52.5 -151v-319h-113v46q-27 -26 -61.5 -41t-77.5 -15q-77 0 -124 39t-47 111q0 41 14.5 69.5t40 47t60 27.5t73.5 11l122 7v15q0 50 -21.5 78.5t-69.5 28.5t-70 -26t-22 -61l-113 4q0 34 14 66.5t40 58
t64 41t86 15.5zM253 208q-40 -2 -65.5 -16.5t-25.5 -49.5q0 -32 21.5 -45t55.5 -13q54 0 87.5 27t33.5 86v18z" />
    <glyph glyph-name="acircumflex" unicode="&#xe2;" horiz-adv-x="548" 
d="M356 597l-78 98l-77 -98h-95l118 173h108l119 -173h-95zM267 522q100 0 152.5 -52t52.5 -151v-319h-113v46q-27 -26 -61.5 -41t-77.5 -15q-77 0 -124 39t-47 111q0 41 14.5 69.5t40 47t60 27.5t73.5 11l122 7v15q0 50 -21.5 78.5t-69.5 28.5t-70 -26t-22 -61l-113 4
q0 34 14 66.5t40 58t64 41t86 15.5zM253 208q-40 -2 -65.5 -16.5t-25.5 -49.5q0 -32 21.5 -45t55.5 -13q54 0 87.5 27t33.5 86v18z" />
    <glyph glyph-name="atilde" unicode="&#xe3;" horiz-adv-x="548" 
d="M203 747q24 0 41.5 -9t32.5 -20t29.5 -20t31.5 -9q23 0 34 14t12 37h64q2 -27 -4 -51.5t-19 -43t-32 -30t-43 -11.5t-41.5 9t-32.5 20t-29.5 20t-31.5 9q-23 0 -34 -14t-11 -37h-65q-2 27 4 51.5t18.5 43.5t32 30t43.5 11zM267 522q100 0 152.5 -52t52.5 -151v-319h-113
v46q-27 -26 -61.5 -41t-77.5 -15q-77 0 -124 39t-47 111q0 41 14.5 69.5t40 47t60 27.5t73.5 11l122 7v15q0 50 -21.5 78.5t-69.5 28.5t-70 -26t-22 -61l-113 4q0 34 14 66.5t40 58t64 41t86 15.5zM253 208q-40 -2 -65.5 -16.5t-25.5 -49.5q0 -32 21.5 -45t55.5 -13
q54 0 87.5 27t33.5 86v18z" />
    <glyph glyph-name="adieresis" unicode="&#xe4;" horiz-adv-x="548" 
d="M192 743q26 0 45 -18.5t19 -44.5q0 -27 -19 -45t-45 -18q-27 0 -45.5 18t-18.5 45q0 26 18.5 44.5t45.5 18.5zM360 743q27 0 45.5 -18.5t18.5 -44.5q0 -27 -18.5 -45t-45.5 -18q-26 0 -45 18t-19 45q0 26 19 44.5t45 18.5zM267 522q100 0 152.5 -52t52.5 -151v-319h-113
v46q-27 -26 -61.5 -41t-77.5 -15q-77 0 -124 39t-47 111q0 41 14.5 69.5t40 47t60 27.5t73.5 11l122 7v15q0 50 -21.5 78.5t-69.5 28.5t-70 -26t-22 -61l-113 4q0 34 14 66.5t40 58t64 41t86 15.5zM253 208q-40 -2 -65.5 -16.5t-25.5 -49.5q0 -32 21.5 -45t55.5 -13
q54 0 87.5 27t33.5 86v18z" />
    <glyph glyph-name="aring" unicode="&#xe5;" horiz-adv-x="548" 
d="M278 809q25 0 47 -8.5t38.5 -23.5t26 -35.5t9.5 -45.5t-9.5 -46t-26 -36t-38.5 -23.5t-47 -8.5q-26 0 -48 8.5t-38.5 23.5t-26 36t-9.5 46t9.5 45.5t26 35.5t38.5 23.5t48 8.5zM278 744q-23 0 -37 -13.5t-14 -34.5q0 -22 14 -35t37 -13q22 0 36 13t14 35q0 21 -14 34.5
t-36 13.5zM267 522q100 0 152.5 -52t52.5 -151v-319h-113v46q-27 -26 -61.5 -41t-77.5 -15q-77 0 -124 39t-47 111q0 41 14.5 69.5t40 47t60 27.5t73.5 11l122 7v15q0 50 -21.5 78.5t-69.5 28.5t-70 -26t-22 -61l-113 4q0 34 14 66.5t40 58t64 41t86 15.5zM253 208
q-40 -2 -65.5 -16.5t-25.5 -49.5q0 -32 21.5 -45t55.5 -13q54 0 87.5 27t33.5 86v18z" />
    <glyph glyph-name="ae" unicode="&#xe6;" horiz-adv-x="906" 
d="M480 214q5 -59 41.5 -93t95.5 -34q49 0 80 19t42 54l113 -6q-8 -34 -28 -64t-50.5 -52t-69.5 -35t-84 -13q-64 0 -115.5 23t-86.5 66q-32 -41 -79.5 -65t-113.5 -24q-80 0 -128 40t-48 112q0 42 14.5 70t40 46t60 26.5t73.5 10.5l122 7v15q0 50 -21.5 79.5t-69.5 29.5
t-70 -27t-22 -62l-113 4q0 34 14 66.5t40 58t64 41t86 15.5q111 0 162 -74q71 74 188 74q55 0 99.5 -17.5t75.5 -50.5t48 -80t17 -105v-55h-377zM616 426q-57 0 -93.5 -32t-41.5 -92h263q-2 56 -33.5 90t-94.5 34zM253 208q-40 -2 -65.5 -15.5t-25.5 -48.5q0 -32 21.5 -44.5
t55.5 -12.5q22 0 44 5t39 17.5t27.5 34t10.5 53.5v18z" />
    <glyph glyph-name="ccedilla" unicode="&#xe7;" horiz-adv-x="584" 
d="M543 179q-14 -83 -72 -133t-144 -55l-8 -35q45 -5 76.5 -29t31.5 -70q0 -28 -11.5 -48.5t-30 -34t-43 -20t-50.5 -6.5q-55 0 -95 19l19 68q26 -17 66 -17q22 0 41.5 8.5t19.5 31.5q0 24 -19 33t-49 9q-11 0 -18.5 -1t-15.5 -3l28 96q-48 6 -88.5 26t-69.5 54t-45.5 80
t-16.5 104q0 63 19.5 112.5t53.5 83.5t81 52t103 18q46 0 86.5 -13.5t71.5 -38.5t51.5 -61t26.5 -81l-110 -10q-6 51 -40.5 79.5t-85.5 28.5q-63 0 -103 -44t-40 -126q0 -41 11 -72t30 -53t45 -33t57 -11q53 0 86 27t41 75z" />
    <glyph glyph-name="egrave" unicode="&#xe8;" horiz-adv-x="594" 
d="M122 787h128l94 -191h-88zM168 214q5 -59 41.5 -93t95.5 -34q49 0 80 19t42 54l113 -6q-8 -34 -28 -64t-50.5 -52t-69.5 -35t-84 -13q-57 0 -104.5 18t-82 52.5t-53.5 84t-19 111.5q0 63 19 112t53 83.5t81 52.5t103 18q55 0 99.5 -17.5t75.5 -50.5t48 -80t17 -105v-55
h-377zM304 426q-57 0 -93.5 -32t-41.5 -92h263q-2 56 -33.5 90t-94.5 34z" />
    <glyph glyph-name="eacute" unicode="&#xe9;" horiz-adv-x="594" 
d="M257 596l95 191h127l-134 -191h-88zM168 214q5 -59 41.5 -93t95.5 -34q49 0 80 19t42 54l113 -6q-8 -34 -28 -64t-50.5 -52t-69.5 -35t-84 -13q-57 0 -104.5 18t-82 52.5t-53.5 84t-19 111.5q0 63 19 112t53 83.5t81 52.5t103 18q55 0 99.5 -17.5t75.5 -50.5t48 -80
t17 -105v-55h-377zM304 426q-57 0 -93.5 -32t-41.5 -92h263q-2 56 -33.5 90t-94.5 34z" />
    <glyph glyph-name="ecircumflex" unicode="&#xea;" horiz-adv-x="594" 
d="M131 597l118 173h108l119 -173h-95l-78 98l-77 -98h-95zM168 214q5 -59 41.5 -93t95.5 -34q49 0 80 19t42 54l113 -6q-8 -34 -28 -64t-50.5 -52t-69.5 -35t-84 -13q-57 0 -104.5 18t-82 52.5t-53.5 84t-19 111.5q0 63 19 112t53 83.5t81 52.5t103 18q55 0 99.5 -17.5
t75.5 -50.5t48 -80t17 -105v-55h-377zM304 426q-57 0 -93.5 -32t-41.5 -92h263q-2 56 -33.5 90t-94.5 34z" />
    <glyph glyph-name="edieresis" unicode="&#xeb;" horiz-adv-x="594" 
d="M217 617q-27 0 -45.5 18t-18.5 45q0 26 18.5 44.5t45.5 18.5q26 0 45 -18.5t19 -44.5q0 -27 -19 -45t-45 -18zM385 617q-26 0 -45 18t-19 45q0 26 19 44.5t45 18.5q27 0 45.5 -18.5t18.5 -44.5q0 -27 -18.5 -45t-45.5 -18zM168 214q5 -59 41.5 -93t95.5 -34q49 0 80 19
t42 54l113 -6q-8 -34 -28 -64t-50.5 -52t-69.5 -35t-84 -13q-57 0 -104.5 18t-82 52.5t-53.5 84t-19 111.5q0 63 19 112t53 83.5t81 52.5t103 18q55 0 99.5 -17.5t75.5 -50.5t48 -80t17 -105v-55h-377zM304 426q-57 0 -93.5 -32t-41.5 -92h263q-2 56 -33.5 90t-94.5 34z" />
    <glyph glyph-name="igrave" unicode="&#xec;" 
d="M93 596l-134 191h128l94 -191h-88zM81 0v513h112v-513h-112z" />
    <glyph glyph-name="iacute" unicode="&#xed;" 
d="M94 596l95 191h127l-134 -191h-88zM81 0v513h112v-513h-112z" />
    <glyph glyph-name="icircumflex" unicode="&#xee;" 
d="M218 597l-78 98l-77 -98h-95l118 173h108l119 -173h-95zM81 0v513h112v-513h-112z" />
    <glyph glyph-name="idieresis" unicode="&#xef;" 
d="M54 743q26 0 45 -18.5t19 -44.5q0 -27 -19 -45t-45 -18q-27 0 -45.5 18t-18.5 45q0 26 18.5 44.5t45.5 18.5zM222 743q27 0 45.5 -18.5t18.5 -44.5q0 -27 -18.5 -45t-45.5 -18q-26 0 -45 18t-19 45q0 26 19 44.5t45 18.5zM81 0v513h112v-513h-112z" />
    <glyph glyph-name="eth" unicode="&#xf0;" horiz-adv-x="606" 
d="M406 678q73 -69 109 -175t36 -241q0 -67 -19 -117.5t-52.5 -85t-80.5 -52t-102 -17.5q-51 0 -96 16.5t-78.5 48t-53.5 77.5t-20 105q0 57 19.5 103t53.5 78.5t78.5 49.5t95.5 17q34 0 64.5 -7.5t57.5 -21.5q-27 104 -87 158l-83 -71l-51 51l72 61q-29 14 -64 20.5
t-75 8.5v93q65 0 118.5 -14.5t98.5 -40.5l89 75l52 -49zM301 87q62 0 101 40.5t39 110.5q0 69 -38 109t-102 40q-62 0 -102 -40t-40 -110q0 -71 40.5 -110.5t101.5 -39.5z" />
    <glyph glyph-name="ntilde" unicode="&#xf1;" horiz-adv-x="613" 
d="M242 747q24 0 41.5 -9t32.5 -20t29.5 -20t31.5 -9q23 0 34 14t12 37h64q2 -27 -4 -51.5t-19 -43t-32 -30t-43 -11.5t-41.5 9t-32.5 20t-29.5 20t-31.5 9q-23 0 -34 -14t-11 -37h-65q-2 27 4 51.5t18.5 43.5t32 30t43.5 11zM337 522q44 0 80.5 -14.5t63 -42t41.5 -67
t15 -89.5v-309h-113v294q0 58 -30.5 91t-81.5 33q-54 0 -86.5 -35.5t-32.5 -89.5v-293h-112v513h106v-68q20 34 56.5 55.5t93.5 21.5z" />
    <glyph glyph-name="ograve" unicode="&#xf2;" horiz-adv-x="634" 
d="M269 596l-134 191h128l94 -191h-88zM317 522q57 0 106 -18.5t84.5 -53t56 -84t20.5 -110.5t-20.5 -110t-56 -83.5t-84.5 -53.5t-106 -19t-106 19t-85 53.5t-56.5 83.5t-20.5 110t20.5 110.5t56.5 84t85 53t106 18.5zM317 426q-67 0 -110.5 -44.5t-43.5 -125.5
q0 -80 43.5 -124.5t110.5 -44.5q33 0 61 11.5t49 33t32.5 53t11.5 71.5t-11.5 71.5t-32.5 53.5t-49 33.5t-61 11.5z" />
    <glyph glyph-name="oacute" unicode="&#xf3;" horiz-adv-x="634" 
d="M270 596l95 191h127l-134 -191h-88zM317 522q57 0 106 -18.5t84.5 -53t56 -84t20.5 -110.5t-20.5 -110t-56 -83.5t-84.5 -53.5t-106 -19t-106 19t-85 53.5t-56.5 83.5t-20.5 110t20.5 110.5t56.5 84t85 53t106 18.5zM317 426q-67 0 -110.5 -44.5t-43.5 -125.5
q0 -80 43.5 -124.5t110.5 -44.5q33 0 61 11.5t49 33t32.5 53t11.5 71.5t-11.5 71.5t-32.5 53.5t-49 33.5t-61 11.5z" />
    <glyph glyph-name="ocircumflex" unicode="&#xf4;" horiz-adv-x="634" 
d="M394 597l-78 98l-77 -98h-95l118 173h108l119 -173h-95zM317 522q57 0 106 -18.5t84.5 -53t56 -84t20.5 -110.5t-20.5 -110t-56 -83.5t-84.5 -53.5t-106 -19t-106 19t-85 53.5t-56.5 83.5t-20.5 110t20.5 110.5t56.5 84t85 53t106 18.5zM317 426q-67 0 -110.5 -44.5
t-43.5 -125.5q0 -80 43.5 -124.5t110.5 -44.5q33 0 61 11.5t49 33t32.5 53t11.5 71.5t-11.5 71.5t-32.5 53.5t-49 33.5t-61 11.5z" />
    <glyph glyph-name="otilde" unicode="&#xf5;" horiz-adv-x="634" 
d="M241 747q24 0 41.5 -9t32.5 -20t29.5 -20t31.5 -9q23 0 34 14t12 37h64q2 -27 -4 -51.5t-19 -43t-32 -30t-43 -11.5t-41.5 9t-32.5 20t-29.5 20t-31.5 9q-23 0 -34 -14t-11 -37h-65q-2 27 4 51.5t18.5 43.5t32 30t43.5 11zM317 522q57 0 106 -18.5t84.5 -53t56 -84
t20.5 -110.5t-20.5 -110t-56 -83.5t-84.5 -53.5t-106 -19t-106 19t-85 53.5t-56.5 83.5t-20.5 110t20.5 110.5t56.5 84t85 53t106 18.5zM317 426q-67 0 -110.5 -44.5t-43.5 -125.5q0 -80 43.5 -124.5t110.5 -44.5q33 0 61 11.5t49 33t32.5 53t11.5 71.5t-11.5 71.5
t-32.5 53.5t-49 33.5t-61 11.5z" />
    <glyph glyph-name="odieresis" unicode="&#xf6;" horiz-adv-x="634" 
d="M230 743q26 0 45 -18.5t19 -44.5q0 -27 -19 -45t-45 -18q-27 0 -45.5 18t-18.5 45q0 26 18.5 44.5t45.5 18.5zM398 743q27 0 45.5 -18.5t18.5 -44.5q0 -27 -18.5 -45t-45.5 -18q-26 0 -45 18t-19 45q0 26 19 44.5t45 18.5zM317 522q57 0 106 -18.5t84.5 -53t56 -84
t20.5 -110.5t-20.5 -110t-56 -83.5t-84.5 -53.5t-106 -19t-106 19t-85 53.5t-56.5 83.5t-20.5 110t20.5 110.5t56.5 84t85 53t106 18.5zM317 426q-67 0 -110.5 -44.5t-43.5 -125.5q0 -80 43.5 -124.5t110.5 -44.5q33 0 61 11.5t49 33t32.5 53t11.5 71.5t-11.5 71.5
t-32.5 53.5t-49 33.5t-61 11.5z" />
    <glyph glyph-name="divide" unicode="&#xf7;" horiz-adv-x="547" 
d="M273 668q30 0 51.5 -21t21.5 -51t-21.5 -50.5t-51.5 -20.5q-29 0 -50 20.5t-21 50.5t21 51t50 21zM32 318v106h483v-106h-483zM273 217q30 0 51.5 -21t21.5 -51q0 -29 -21.5 -50.5t-51.5 -21.5q-29 0 -50 21.5t-21 50.5q0 30 21 51t50 21z" />
    <glyph glyph-name="oslash" unicode="&#xf8;" horiz-adv-x="634" 
d="M511 447q35 -35 54 -83t19 -108q0 -61 -20.5 -110t-56 -83.5t-84.5 -53.5t-106 -19q-71 0 -129 29l-44 -58l-62 46l43 56q-36 35 -56 84t-20 109q0 61 20.5 110.5t56.5 84t85 53t106 18.5q74 0 131 -30l39 51l62 -46zM163 256q0 -61 28 -105l196 260q-32 15 -70 15
q-67 0 -110.5 -44.5t-43.5 -125.5zM317 87q33 0 61 11.5t49 33t32.5 53t11.5 71.5q0 62 -26 103l-195 -258q31 -14 67 -14z" />
    <glyph glyph-name="ugrave" unicode="&#xf9;" horiz-adv-x="596" 
d="M253 596l-134 191h128l94 -191h-88zM409 0v67q-14 -29 -49.5 -53t-95.5 -24q-44 0 -78.5 15t-59 42t-37.5 65t-13 85v316h112v-299q0 -56 26.5 -87.5t77.5 -31.5q26 0 46.5 10t35 27.5t22 40t7.5 47.5v293h112v-513h-106z" />
    <glyph glyph-name="uacute" unicode="&#xfa;" horiz-adv-x="596" 
d="M254 596l95 191h127l-134 -191h-88zM409 0v67q-14 -29 -49.5 -53t-95.5 -24q-44 0 -78.5 15t-59 42t-37.5 65t-13 85v316h112v-299q0 -56 26.5 -87.5t77.5 -31.5q26 0 46.5 10t35 27.5t22 40t7.5 47.5v293h112v-513h-106z" />
    <glyph glyph-name="ucircumflex" unicode="&#xfb;" horiz-adv-x="596" 
d="M378 597l-78 98l-77 -98h-95l118 173h108l119 -173h-95zM409 0v67q-14 -29 -49.5 -53t-95.5 -24q-44 0 -78.5 15t-59 42t-37.5 65t-13 85v316h112v-299q0 -56 26.5 -87.5t77.5 -31.5q26 0 46.5 10t35 27.5t22 40t7.5 47.5v293h112v-513h-106z" />
    <glyph glyph-name="udieresis" unicode="&#xfc;" horiz-adv-x="596" 
d="M214 743q26 0 45 -18.5t19 -44.5q0 -27 -19 -45t-45 -18q-27 0 -45.5 18t-18.5 45q0 26 18.5 44.5t45.5 18.5zM382 743q27 0 45.5 -18.5t18.5 -44.5q0 -27 -18.5 -45t-45.5 -18q-26 0 -45 18t-19 45q0 26 19 44.5t45 18.5zM409 0v67q-14 -29 -49.5 -53t-95.5 -24
q-44 0 -78.5 15t-59 42t-37.5 65t-13 85v316h112v-299q0 -56 26.5 -87.5t77.5 -31.5q26 0 46.5 10t35 27.5t22 40t7.5 47.5v293h112v-513h-106z" />
    <glyph glyph-name="yacute" unicode="&#xfd;" horiz-adv-x="549" 
d="M229 596l95 191h127l-134 -191h-88zM89 -255l126 291l-203 477h125l138 -351l138 351h125l-326 -768h-123z" />
    <glyph glyph-name="thorn" unicode="&#xfe;" horiz-adv-x="652" 
d="M193 450q21 31 63 51.5t100 20.5q54 0 99 -18.5t78 -53t51.5 -84t18.5 -110.5q0 -62 -18.5 -111t-51.5 -83.5t-78 -53t-99 -18.5q-58 0 -100 20.5t-63 50.5v-316h-112v1032h112v-327zM338 425q-63 0 -104 -39.5t-41 -116.5v-27q0 -76 41 -116t104 -40q33 0 60.5 11
t47.5 33t31.5 53.5t11.5 72.5t-11.5 72.5t-31.5 53t-47.5 32.5t-60.5 11z" />
    <glyph glyph-name="ydieresis" unicode="&#xff;" horiz-adv-x="549" 
d="M189 743q26 0 45 -18.5t19 -44.5q0 -27 -19 -45t-45 -18q-27 0 -45.5 18t-18.5 45q0 26 18.5 44.5t45.5 18.5zM357 743q27 0 45.5 -18.5t18.5 -44.5q0 -27 -18.5 -45t-45.5 -18q-26 0 -45 18t-19 45q0 26 19 44.5t45 18.5zM89 -255l126 291l-203 477h125l138 -351
l138 351h125l-326 -768h-123z" />
    <glyph glyph-name="Amacron" unicode="&#x100;" horiz-adv-x="759" 
d="M240 826v86h279v-86h-279zM615 0l-69 167h-334l-70 -167h-130l316 748h101l317 -748h-131zM501 273l-121 291l-122 -291h243z" />
    <glyph glyph-name="amacron" unicode="&#x101;" horiz-adv-x="548" 
d="M138 628v87h279v-87h-279zM267 522q100 0 152.5 -52t52.5 -151v-319h-113v46q-27 -26 -61.5 -41t-77.5 -15q-77 0 -124 39t-47 111q0 41 14.5 69.5t40 47t60 27.5t73.5 11l122 7v15q0 50 -21.5 78.5t-69.5 28.5t-70 -26t-22 -61l-113 4q0 34 14 66.5t40 58t64 41t86 15.5
zM253 208q-40 -2 -65.5 -16.5t-25.5 -49.5q0 -32 21.5 -45t55.5 -13q54 0 87.5 27t33.5 86v18z" />
    <glyph glyph-name="Abreve" unicode="&#x102;" horiz-adv-x="759" 
d="M549 948q0 -74 -47.5 -110.5t-122.5 -36.5q-37 0 -68 9t-53.5 27.5t-35 46t-12.5 64.5h92q0 -32 21 -50.5t56 -18.5t56.5 18.5t21.5 50.5h92zM615 0l-69 167h-334l-70 -167h-130l316 748h101l317 -748h-131zM501 273l-121 291l-122 -291h243z" />
    <glyph glyph-name="abreve" unicode="&#x103;" horiz-adv-x="548" 
d="M447 743q0 -74 -47.5 -110.5t-122.5 -36.5q-37 0 -68 9t-53.5 27.5t-35 46t-12.5 64.5h92q0 -32 21 -50.5t56 -18.5t56.5 18.5t21.5 50.5h92zM267 522q100 0 152.5 -52t52.5 -151v-319h-113v46q-27 -26 -61.5 -41t-77.5 -15q-77 0 -124 39t-47 111q0 41 14.5 69.5t40 47
t60 27.5t73.5 11l122 7v15q0 50 -21.5 78.5t-69.5 28.5t-70 -26t-22 -61l-113 4q0 34 14 66.5t40 58t64 41t86 15.5zM253 208q-40 -2 -65.5 -16.5t-25.5 -49.5q0 -32 21.5 -45t55.5 -13q54 0 87.5 27t33.5 86v18z" />
    <glyph glyph-name="Aogonek" unicode="&#x104;" horiz-adv-x="759" 
d="M663 -129q29 0 53 12l11 -56q-17 -8 -36.5 -12.5t-46.5 -4.5q-48 0 -81.5 21.5t-33.5 67.5q0 35 23 59.5t62 43.5l-68 165h-334l-70 -167h-130l316 748h101l317 -748h-49q-39 -21 -61.5 -40t-22.5 -48q0 -20 13.5 -30.5t36.5 -10.5zM380 564l-122 -291h243z" />
    <glyph glyph-name="aogonek" unicode="&#x105;" horiz-adv-x="548" 
d="M440 0q-38 -20 -60 -39.5t-22 -47.5q0 -20 13.5 -30.5t36.5 -10.5q29 0 53 12l11 -56q-17 -8 -36.5 -12.5t-46.5 -4.5q-48 0 -81.5 21.5t-33.5 67.5q0 35 23 59.5t62 43.5v43q-27 -26 -61.5 -41t-77.5 -15q-77 0 -124 39t-47 111q0 41 14.5 69.5t40 47t60 27.5t73.5 11
l122 7v15q0 50 -21.5 78.5t-69.5 28.5t-70 -26t-22 -61l-113 4q0 34 14 66.5t40 58t64 41t86 15.5q100 0 152.5 -52t52.5 -151v-319h-32zM239 84q54 0 87.5 27t33.5 86v18l-107 -7q-40 -2 -65.5 -16.5t-25.5 -49.5q0 -32 21.5 -45t55.5 -13z" />
    <glyph glyph-name="Cacute" unicode="&#x106;" horiz-adv-x="816" 
d="M364 795l139 147h155l-190 -147h-104zM426 758q67 0 126 -19.5t105 -55.5t76.5 -88t39.5 -117l-124 -11q-15 90 -76.5 137.5t-150.5 47.5q-55 0 -100.5 -19t-78.5 -55t-51 -87.5t-18 -116.5q0 -68 19 -120t53 -87t79 -53t98 -18q88 0 149 45.5t77 132.5l125 -11
q-11 -64 -41.5 -114.5t-76 -86t-104 -54t-125.5 -18.5q-80 0 -148.5 26t-118.5 75.5t-78.5 120.5t-28.5 162t28 162.5t78 120.5t118 75t149 26z" />
    <glyph glyph-name="cacute" unicode="&#x107;" horiz-adv-x="584" 
d="M253 596l95 191h127l-134 -191h-88zM306 522q46 0 86.5 -13.5t71.5 -38.5t51.5 -61t26.5 -81l-110 -10q-6 51 -40.5 79.5t-85.5 28.5q-63 0 -103 -44t-40 -126q0 -41 11 -72t30 -53t45 -33t57 -11q53 0 86 27t41 75l110 -10q-8 -44 -28 -79t-51 -59.5t-71 -37.5t-87 -13
q-55 0 -102 18t-81.5 52t-54 83.5t-19.5 112.5t19.5 112.5t53.5 83.5t81 52t103 18z" />
    <glyph glyph-name="Ccircumflex" unicode="&#x108;" horiz-adv-x="816" 
d="M493 795l-76 84l-77 -84h-95l118 150h108l118 -150h-96zM426 758q67 0 126 -19.5t105 -55.5t76.5 -88t39.5 -117l-124 -11q-15 90 -76.5 137.5t-150.5 47.5q-55 0 -100.5 -19t-78.5 -55t-51 -87.5t-18 -116.5q0 -68 19 -120t53 -87t79 -53t98 -18q88 0 149 45.5t77 132.5
l125 -11q-11 -64 -41.5 -114.5t-76 -86t-104 -54t-125.5 -18.5q-80 0 -148.5 26t-118.5 75.5t-78.5 120.5t-28.5 162t28 162.5t78 120.5t118 75t149 26z" />
    <glyph glyph-name="ccircumflex" unicode="&#x109;" horiz-adv-x="584" 
d="M377 597l-78 98l-77 -98h-95l118 173h108l119 -173h-95zM306 522q46 0 86.5 -13.5t71.5 -38.5t51.5 -61t26.5 -81l-110 -10q-6 51 -40.5 79.5t-85.5 28.5q-63 0 -103 -44t-40 -126q0 -41 11 -72t30 -53t45 -33t57 -11q53 0 86 27t41 75l110 -10q-8 -44 -28 -79t-51 -59.5
t-71 -37.5t-87 -13q-55 0 -102 18t-81.5 52t-54 83.5t-19.5 112.5t19.5 112.5t53.5 83.5t81 52t103 18z" />
    <glyph glyph-name="Cdotaccent" unicode="&#x10a;" horiz-adv-x="816" 
d="M417 946q29 0 50 -21t21 -50q0 -30 -21 -50.5t-50 -20.5t-50 20.5t-21 50.5q0 29 21 50t50 21zM426 758q67 0 126 -19.5t105 -55.5t76.5 -88t39.5 -117l-124 -11q-15 90 -76.5 137.5t-150.5 47.5q-55 0 -100.5 -19t-78.5 -55t-51 -87.5t-18 -116.5q0 -68 19 -120t53 -87
t79 -53t98 -18q88 0 149 45.5t77 132.5l125 -11q-11 -64 -41.5 -114.5t-76 -86t-104 -54t-125.5 -18.5q-80 0 -148.5 26t-118.5 75.5t-78.5 120.5t-28.5 162t28 162.5t78 120.5t118 75t149 26z" />
    <glyph glyph-name="cdotaccent" unicode="&#x10b;" horiz-adv-x="584" 
d="M299 752q29 0 50 -21t21 -50t-21 -50t-50 -21t-50 21t-21 50t21 50t50 21zM306 522q46 0 86.5 -13.5t71.5 -38.5t51.5 -61t26.5 -81l-110 -10q-6 51 -40.5 79.5t-85.5 28.5q-63 0 -103 -44t-40 -126q0 -41 11 -72t30 -53t45 -33t57 -11q53 0 86 27t41 75l110 -10
q-8 -44 -28 -79t-51 -59.5t-71 -37.5t-87 -13q-55 0 -102 18t-81.5 52t-54 83.5t-19.5 112.5t19.5 112.5t53.5 83.5t81 52t103 18z" />
    <glyph glyph-name="Ccaron" unicode="&#x10c;" horiz-adv-x="816" 
d="M363 795l-118 150h95l77 -83l76 83h96l-118 -150h-108zM426 758q67 0 126 -19.5t105 -55.5t76.5 -88t39.5 -117l-124 -11q-15 90 -76.5 137.5t-150.5 47.5q-55 0 -100.5 -19t-78.5 -55t-51 -87.5t-18 -116.5q0 -68 19 -120t53 -87t79 -53t98 -18q88 0 149 45.5t77 132.5
l125 -11q-11 -64 -41.5 -114.5t-76 -86t-104 -54t-125.5 -18.5q-80 0 -148.5 26t-118.5 75.5t-78.5 120.5t-28.5 162t28 162.5t78 120.5t118 75t149 26z" />
    <glyph glyph-name="ccaron" unicode="&#x10d;" horiz-adv-x="584" 
d="M245 595l-118 172h95l77 -98l78 98h95l-119 -172h-108zM306 522q46 0 86.5 -13.5t71.5 -38.5t51.5 -61t26.5 -81l-110 -10q-6 51 -40.5 79.5t-85.5 28.5q-63 0 -103 -44t-40 -126q0 -41 11 -72t30 -53t45 -33t57 -11q53 0 86 27t41 75l110 -10q-8 -44 -28 -79t-51 -59.5
t-71 -37.5t-87 -13q-55 0 -102 18t-81.5 52t-54 83.5t-19.5 112.5t19.5 112.5t53.5 83.5t81 52t103 18z" />
    <glyph glyph-name="Dcaron" unicode="&#x10e;" horiz-adv-x="801" 
d="M296 795l-118 150h95l77 -83l76 83h96l-118 -150h-108zM383 748q78 0 145 -25.5t116 -73.5t76.5 -117.5t27.5 -157.5q0 -89 -28 -158.5t-77 -117.5t-116.5 -73t-145.5 -25h-297v748h299zM202 102h180q54 0 99.5 17.5t78.5 51.5t51 85t18 118t-18 118t-50.5 85t-77.5 51.5
t-100 17.5h-181v-544z" />
    <glyph glyph-name="dcaron" unicode="&#x10f;" horiz-adv-x="782" 
d="M571 777v-777h-106v71q-21 -35 -65 -58t-104 -23q-54 0 -99 18.5t-78 53t-51.5 84t-18.5 110.5t18.5 110.5t51.5 84t78 53t99 18.5q58 0 100 -20.5t63 -50.5v326h112zM698 761q32 0 49.5 -22.5t17.5 -57.5q0 -65 -30.5 -117.5t-99.5 -89.5v48q51 37 62 97
q-29 2 -48.5 21.5t-19.5 48.5q0 30 19.5 51t49.5 21zM459 270q0 76 -41 116t-104 40q-33 0 -60.5 -11t-47.5 -33t-31.5 -53.5t-11.5 -72.5t11.5 -72.5t31.5 -53t47.5 -32.5t60.5 -11q63 0 104 39.5t41 116.5v27z" />
    <glyph glyph-name="Dcroat" unicode="&#x110;" horiz-adv-x="799" 
d="M402 748q78 0 145 -25.5t116 -73.5t76.5 -117.5t27.5 -157.5q0 -89 -28 -158.5t-77 -117.5t-116.5 -73t-145.5 -25h-297v328h-98v91h98v329h299zM401 102q54 0 99.5 17.5t78.5 51.5t51 85t18 118t-18 118t-50.5 85t-77.5 51.5t-100 17.5h-181v-227h132v-91h-132v-226h180
z" />
    <glyph glyph-name="dcroat" unicode="&#x111;" horiz-adv-x="648" 
d="M571 605v-605h-106v71q-21 -35 -65 -58t-104 -23q-54 0 -99 18.5t-78 53t-51.5 84t-18.5 110.5t18.5 110.5t51.5 84t78 53t99 18.5q58 0 100 -20.5t63 -50.5v154h-91v87h91v85h112v-85h76v-87h-76zM459 270q0 76 -41 116t-104 40q-33 0 -60.5 -11t-47.5 -33t-31.5 -53.5
t-11.5 -72.5t11.5 -72.5t31.5 -53t47.5 -32.5t60.5 -11q63 0 104 39.5t41 116.5v27z" />
    <glyph glyph-name="Emacron" unicode="&#x112;" horiz-adv-x="597" 
d="M183 826v86h279v-86h-279zM203 643v-206h307v-103h-307v-228h351v-106h-470v748h470v-105h-351z" />
    <glyph glyph-name="emacron" unicode="&#x113;" horiz-adv-x="594" 
d="M163 628v87h279v-87h-279zM168 214q5 -59 41.5 -93t95.5 -34q49 0 80 19t42 54l113 -6q-8 -34 -28 -64t-50.5 -52t-69.5 -35t-84 -13q-57 0 -104.5 18t-82 52.5t-53.5 84t-19 111.5q0 63 19 112t53 83.5t81 52.5t103 18q55 0 99.5 -17.5t75.5 -50.5t48 -80t17 -105v-55
h-377zM304 426q-57 0 -93.5 -32t-41.5 -92h263q-2 56 -33.5 90t-94.5 34z" />
    <glyph glyph-name="Ebreve" unicode="&#x114;" horiz-adv-x="597" 
d="M492 948q0 -74 -47.5 -110.5t-122.5 -36.5q-37 0 -68 9t-53.5 27.5t-35 46t-12.5 64.5h92q0 -32 21 -50.5t56 -18.5t56.5 18.5t21.5 50.5h92zM203 643v-206h307v-103h-307v-228h351v-106h-470v748h470v-105h-351z" />
    <glyph glyph-name="ebreve" unicode="&#x115;" horiz-adv-x="594" 
d="M302 596q-37 0 -68 9t-53.5 27.5t-35 46t-12.5 64.5h92q0 -32 21 -50.5t56 -18.5t56.5 18.5t21.5 50.5h92q0 -74 -47.5 -110.5t-122.5 -36.5zM168 214q5 -59 41.5 -93t95.5 -34q49 0 80 19t42 54l113 -6q-8 -34 -28 -64t-50.5 -52t-69.5 -35t-84 -13q-57 0 -104.5 18
t-82 52.5t-53.5 84t-19 111.5q0 63 19 112t53 83.5t81 52.5t103 18q55 0 99.5 -17.5t75.5 -50.5t48 -80t17 -105v-55h-377zM304 426q-57 0 -93.5 -32t-41.5 -92h263q-2 56 -33.5 90t-94.5 34z" />
    <glyph glyph-name="Edotaccent" unicode="&#x116;" horiz-adv-x="597" 
d="M323 946q29 0 50 -21t21 -50q0 -30 -21 -50.5t-50 -20.5t-50 20.5t-21 50.5q0 29 21 50t50 21zM203 643v-206h307v-103h-307v-228h351v-106h-470v748h470v-105h-351z" />
    <glyph glyph-name="edotaccent" unicode="&#x117;" horiz-adv-x="594" 
d="M303 610q-29 0 -50 21t-21 50t21 50t50 21t50 -21t21 -50t-21 -50t-50 -21zM168 214q5 -59 41.5 -93t95.5 -34q49 0 80 19t42 54l113 -6q-8 -34 -28 -64t-50.5 -52t-69.5 -35t-84 -13q-57 0 -104.5 18t-82 52.5t-53.5 84t-19 111.5q0 63 19 112t53 83.5t81 52.5t103 18
q55 0 99.5 -17.5t75.5 -50.5t48 -80t17 -105v-55h-377zM304 426q-57 0 -93.5 -32t-41.5 -92h263q-2 56 -33.5 90t-94.5 34z" />
    <glyph glyph-name="Eogonek" unicode="&#x118;" horiz-adv-x="597" 
d="M576 -173q-17 -8 -36.5 -12.5t-46.5 -4.5q-48 0 -81.5 21.5t-33.5 67.5q0 35 21.5 59t59.5 42h-375v748h470v-105h-351v-206h307v-103h-307v-228h351v-106h-8q-39 -21 -61.5 -40t-22.5 -48q0 -20 13.5 -30.5t36.5 -10.5q29 0 53 12z" />
    <glyph glyph-name="eogonek" unicode="&#x119;" horiz-adv-x="594" 
d="M168 214q5 -59 41.5 -93t95.5 -34q49 0 80 19t42 54l113 -6q-12 -55 -56.5 -97.5t-109.5 -58.5q-38 -20 -60 -39.5t-22 -47.5q0 -20 13.5 -30.5t36.5 -10.5q29 0 53 12l11 -56q-17 -8 -36.5 -12.5t-46.5 -4.5q-48 0 -81.5 21.5t-33.5 67.5q0 31 18 54t49 40
q-50 5 -91.5 25t-71.5 54t-46.5 80.5t-16.5 104.5q0 63 19 112t53 83.5t81 52.5t103 18q55 0 99.5 -17.5t75.5 -50.5t48 -80t17 -105v-55h-377zM304 426q-57 0 -93.5 -32t-41.5 -92h263q-2 56 -33.5 90t-94.5 34z" />
    <glyph glyph-name="Ecaron" unicode="&#x11a;" horiz-adv-x="597" 
d="M269 795l-118 150h95l77 -83l76 83h96l-118 -150h-108zM203 643v-206h307v-103h-307v-228h351v-106h-470v748h470v-105h-351z" />
    <glyph glyph-name="ecaron" unicode="&#x11b;" horiz-adv-x="594" 
d="M131 767h95l77 -98l78 98h95l-119 -172h-108zM168 214q5 -59 41.5 -93t95.5 -34q49 0 80 19t42 54l113 -6q-8 -34 -28 -64t-50.5 -52t-69.5 -35t-84 -13q-57 0 -104.5 18t-82 52.5t-53.5 84t-19 111.5q0 63 19 112t53 83.5t81 52.5t103 18q55 0 99.5 -17.5t75.5 -50.5
t48 -80t17 -105v-55h-377zM304 426q-57 0 -93.5 -32t-41.5 -92h263q-2 56 -33.5 90t-94.5 34z" />
    <glyph glyph-name="Gcircumflex" unicode="&#x11c;" horiz-adv-x="827" 
d="M247 795l118 150h108l118 -150h-96l-76 84l-77 -84h-95zM775 353q0 -83 -24.5 -150.5t-70 -114.5t-110.5 -72.5t-145 -25.5t-148 26t-117.5 75.5t-78 120.5t-28.5 162t28 162.5t77.5 120.5t117.5 75t148 26q64 0 121.5 -17.5t102.5 -51t76 -82t44 -110.5l-123 -20
q-15 82 -74 128.5t-148 46.5q-56 0 -101.5 -17.5t-78.5 -52.5t-51 -87t-18 -121t18.5 -121t51.5 -87t78.5 -52.5t100.5 -17.5q43 0 81 11.5t67 34.5t48.5 59t26.5 86h-221v105h350v-39z" />
    <glyph glyph-name="gcircumflex" unicode="&#x11d;" horiz-adv-x="646" 
d="M395 597l-78 98l-77 -98h-95l118 173h108l119 -173h-95zM296 522q60 0 104 -23t65 -58v72h106v-538q0 -55 -18 -99.5t-51 -75.5t-79.5 -47.5t-103.5 -16.5t-101 14t-75.5 38.5t-51.5 59t-27 76.5l112 4q8 -45 45.5 -71t94.5 -26q64 0 103.5 34.5t39.5 101.5v94
q-21 -30 -63 -50.5t-100 -20.5q-54 0 -99 18.5t-78 53t-51.5 83.5t-18.5 111q0 61 18.5 110.5t51.5 84t78 53t99 18.5zM314 425q-33 0 -60.5 -11t-47.5 -32.5t-31.5 -53t-11.5 -72.5t11.5 -72.5t31.5 -53.5t47.5 -33t60.5 -11q63 0 104 40t41 116v27q0 77 -41 116.5
t-104 39.5z" />
    <glyph glyph-name="Gbreve" unicode="&#x11e;" horiz-adv-x="827" 
d="M418 801q-37 0 -68 9t-53.5 27.5t-35 46t-12.5 64.5h92q0 -32 21 -50.5t56 -18.5t56.5 18.5t21.5 50.5h92q0 -74 -47.5 -110.5t-122.5 -36.5zM775 353q0 -83 -24.5 -150.5t-70 -114.5t-110.5 -72.5t-145 -25.5t-148 26t-117.5 75.5t-78 120.5t-28.5 162t28 162.5
t77.5 120.5t117.5 75t148 26q64 0 121.5 -17.5t102.5 -51t76 -82t44 -110.5l-123 -20q-15 82 -74 128.5t-148 46.5q-56 0 -101.5 -17.5t-78.5 -52.5t-51 -87t-18 -121t18.5 -121t51.5 -87t78.5 -52.5t100.5 -17.5q43 0 81 11.5t67 34.5t48.5 59t26.5 86h-221v105h350v-39z
" />
    <glyph glyph-name="gbreve" unicode="&#x11f;" horiz-adv-x="646" 
d="M486 743q0 -74 -47.5 -110.5t-122.5 -36.5q-37 0 -68 9t-53.5 27.5t-35 46t-12.5 64.5h92q0 -32 21 -50.5t56 -18.5t56.5 18.5t21.5 50.5h92zM296 522q60 0 104 -23t65 -58v72h106v-538q0 -55 -18 -99.5t-51 -75.5t-79.5 -47.5t-103.5 -16.5t-101 14t-75.5 38.5t-51.5 59
t-27 76.5l112 4q8 -45 45.5 -71t94.5 -26q64 0 103.5 34.5t39.5 101.5v94q-21 -30 -63 -50.5t-100 -20.5q-54 0 -99 18.5t-78 53t-51.5 83.5t-18.5 111q0 61 18.5 110.5t51.5 84t78 53t99 18.5zM314 425q-33 0 -60.5 -11t-47.5 -32.5t-31.5 -53t-11.5 -72.5t11.5 -72.5
t31.5 -53.5t47.5 -33t60.5 -11q63 0 104 40t41 116v27q0 77 -41 116.5t-104 39.5z" />
    <glyph glyph-name="Gdotaccent" unicode="&#x120;" horiz-adv-x="827" 
d="M419 804q-29 0 -50 20.5t-21 50.5q0 29 21 50t50 21t50 -21t21 -50q0 -30 -21 -50.5t-50 -20.5zM775 353q0 -83 -24.5 -150.5t-70 -114.5t-110.5 -72.5t-145 -25.5t-148 26t-117.5 75.5t-78 120.5t-28.5 162t28 162.5t77.5 120.5t117.5 75t148 26q64 0 121.5 -17.5
t102.5 -51t76 -82t44 -110.5l-123 -20q-15 82 -74 128.5t-148 46.5q-56 0 -101.5 -17.5t-78.5 -52.5t-51 -87t-18 -121t18.5 -121t51.5 -87t78.5 -52.5t100.5 -17.5q43 0 81 11.5t67 34.5t48.5 59t26.5 86h-221v105h350v-39z" />
    <glyph glyph-name="gdotaccent" unicode="&#x121;" horiz-adv-x="646" 
d="M317 752q29 0 50 -21t21 -50t-21 -50t-50 -21t-50 21t-21 50t21 50t50 21zM296 522q60 0 104 -23t65 -58v72h106v-538q0 -55 -18 -99.5t-51 -75.5t-79.5 -47.5t-103.5 -16.5t-101 14t-75.5 38.5t-51.5 59t-27 76.5l112 4q8 -45 45.5 -71t94.5 -26q64 0 103.5 34.5
t39.5 101.5v94q-21 -30 -63 -50.5t-100 -20.5q-54 0 -99 18.5t-78 53t-51.5 83.5t-18.5 111q0 61 18.5 110.5t51.5 84t78 53t99 18.5zM314 425q-33 0 -60.5 -11t-47.5 -32.5t-31.5 -53t-11.5 -72.5t11.5 -72.5t31.5 -53.5t47.5 -33t60.5 -11q63 0 104 40t41 116v27
q0 77 -41 116.5t-104 39.5z" />
    <glyph glyph-name="Gcommaaccent" unicode="&#x122;" horiz-adv-x="827" 
d="M775 353q0 -83 -24.5 -150.5t-70 -114.5t-110.5 -72.5t-145 -25.5t-148 26t-117.5 75.5t-78 120.5t-28.5 162t28 162.5t77.5 120.5t117.5 75t148 26q64 0 121.5 -17.5t102.5 -51t76 -82t44 -110.5l-123 -20q-15 82 -74 128.5t-148 46.5q-56 0 -101.5 -17.5t-78.5 -52.5
t-51 -87t-18 -121t18.5 -121t51.5 -87t78.5 -52.5t100.5 -17.5q43 0 81 11.5t67 34.5t48.5 59t26.5 86h-221v105h350v-39zM420 -47q32 0 49.5 -22.5t17.5 -57.5q0 -65 -30.5 -117.5t-99.5 -89.5v48q51 37 62 97q-29 2 -48.5 21.5t-19.5 48.5q0 30 19.5 51t49.5 21z" />
    <glyph glyph-name="gcommaaccent" unicode="&#x123;" horiz-adv-x="646" 
d="M328 723q-29 2 -48.5 21.5t-19.5 48.5q0 30 19.5 51t49.5 21q32 0 49.5 -22.5t17.5 -57.5q0 -65 -30.5 -117.5t-99.5 -89.5v48q51 37 62 97zM571 -25q0 -55 -18 -99.5t-51 -75.5t-79.5 -47.5t-103.5 -16.5t-101 14t-75.5 38.5t-51.5 59t-27 76.5l112 4q8 -45 45.5 -71
t94.5 -26q64 0 103.5 34.5t39.5 101.5v94q-21 -30 -63 -50.5t-100 -20.5q-54 0 -99 18.5t-78 53t-51.5 83.5t-18.5 111q0 61 18.5 110.5t51.5 84t78 53t99 18.5q60 0 104 -23t65 -58v72h106v-538zM459 269q0 77 -41 116.5t-104 39.5q-33 0 -60.5 -11t-47.5 -32.5t-31.5 -53
t-11.5 -72.5t11.5 -72.5t31.5 -53.5t47.5 -33t60.5 -11q63 0 104 40t41 116v27z" />
    <glyph glyph-name="Hcircumflex" unicode="&#x124;" horiz-adv-x="757" 
d="M455 795l-76 84l-77 -84h-95l118 150h108l118 -150h-96zM555 0v333h-352v-333h-119v748h119v-309h352v309h119v-748h-119z" />
    <glyph glyph-name="hcircumflex" unicode="&#x125;" horiz-adv-x="609" 
d="M215 799l-76 84l-77 -84h-95l118 150h108l118 -150h-96zM193 455q18 27 54 47t90 20q44 0 80.5 -14.5t63 -42t41.5 -67t15 -89.5v-309h-113v294q0 58 -30.5 91t-81.5 33q-54 0 -86.5 -35.5t-32.5 -89.5v-293h-112v777h112v-322z" />
    <glyph glyph-name="Hbar" unicode="&#x126;" horiz-adv-x="770" 
d="M680 545v-545h-119v333h-352v-333h-119v545h-82v91h82v112h119v-112h352v112h119v-112h82v-91h-82zM209 545v-106h352v106h-352z" />
    <glyph glyph-name="hbar" unicode="&#x127;" horiz-adv-x="609" 
d="M337 522q44 0 80.5 -14.5t63 -42t41.5 -67t15 -89.5v-309h-113v294q0 58 -30.5 91t-81.5 33q-54 0 -86.5 -35.5t-32.5 -89.5v-293h-112v605h-77v87h77v85h112v-85h90v-87h-90v-150q18 27 54 47t90 20z" />
    <glyph glyph-name="Itilde" unicode="&#x128;" horiz-adv-x="286" 
d="M73 946q24 0 41.5 -9t32.5 -20t29.5 -20t31.5 -9q23 0 34 14.5t12 36.5h64q2 -27 -4 -51t-19 -43t-32 -30t-43 -11t-41.5 9t-32.5 19.5t-29.5 19.5t-31.5 9q-23 0 -34 -14t-11 -36h-65q-2 27 4 51t18.5 43t32 30t43.5 11zM84 0v748h119v-748h-119z" />
    <glyph glyph-name="itilde" unicode="&#x129;" 
d="M65 747q24 0 41.5 -9t32.5 -20t29.5 -20t31.5 -9q23 0 34 14t12 37h64q2 -27 -4 -51.5t-19 -43t-32 -30t-43 -11.5t-41.5 9t-32.5 20t-29.5 20t-31.5 9q-23 0 -34 -14t-11 -37h-65q-2 27 4 51.5t18.5 43.5t32 30t43.5 11zM81 0v513h112v-513h-112z" />
    <glyph glyph-name="Imacron" unicode="&#x12a;" horiz-adv-x="286" 
d="M7 826v86h279v-86h-279zM84 0v748h119v-748h-119z" />
    <glyph glyph-name="imacron" unicode="&#x12b;" 
d="M0 628v87h279v-87h-279zM81 0v513h112v-513h-112z" />
    <glyph glyph-name="Ibreve" unicode="&#x12c;" horiz-adv-x="286" 
d="M316 948q0 -74 -47.5 -110.5t-122.5 -36.5q-37 0 -68 9t-53.5 27.5t-35 46t-12.5 64.5h92q0 -32 21 -50.5t56 -18.5t56.5 18.5t21.5 50.5h92zM84 0v748h119v-748h-119z" />
    <glyph glyph-name="ibreve" unicode="&#x12d;" 
d="M309 743q0 -74 -47.5 -110.5t-122.5 -36.5q-37 0 -68 9t-53.5 27.5t-35 46t-12.5 64.5h92q0 -32 21 -50.5t56 -18.5t56.5 18.5t21.5 50.5h92zM81 0v513h112v-513h-112z" />
    <glyph glyph-name="Iogonek" unicode="&#x12e;" horiz-adv-x="286" 
d="M153 0q-38 -20 -60 -39.5t-22 -47.5q0 -20 13.5 -30.5t36.5 -10.5q29 0 53 12l11 -56q-17 -8 -36.5 -12.5t-46.5 -4.5q-48 0 -81.5 21.5t-33.5 67.5q0 38 26 63.5t71 44.5v740h119v-748h-50z" />
    <glyph glyph-name="iogonek" unicode="&#x12f;" 
d="M140 610q-29 0 -50 21t-21 50t21 50t50 21t50 -21t21 -50t-21 -50t-50 -21zM131 -128q29 0 53 12l11 -56q-17 -8 -36.5 -12.5t-46.5 -4.5q-48 0 -81.5 21.5t-33.5 67.5q0 35 23 59.5t61 42.5v511h112v-513h-30q-38 -20 -60 -39.5t-22 -47.5q0 -20 13.5 -30.5t36.5 -10.5z
" />
    <glyph glyph-name="Idotaccent" unicode="&#x130;" horiz-adv-x="286" 
d="M147 946q29 0 50 -21t21 -50q0 -30 -21 -50.5t-50 -20.5t-50 20.5t-21 50.5q0 29 21 50t50 21zM84 0v748h119v-748h-119z" />
    <glyph glyph-name="dotlessi" unicode="&#x131;" 
d="M81 0v513h112v-513h-112z" />
    <glyph glyph-name="Jcircumflex" unicode="&#x134;" horiz-adv-x="594" 
d="M539 795l-76 84l-77 -84h-95l118 150h108l118 -150h-96zM516 250q0 -125 -65.5 -192.5t-180.5 -67.5q-111 0 -177 63.5t-72 177.5l119 19q4 -74 38 -114t93 -40q60 0 93 38t33 113v501h119v-498z" />
    <glyph glyph-name="jcircumflex" unicode="&#x135;" 
d="M214 597l-78 98l-77 -98h-95l118 173h108l119 -173h-95zM194 -65q0 -52 -13 -89.5t-37 -61.5t-56.5 -35.5t-71.5 -11.5q-35 0 -60 7.5t-43 18.5l44 92q8 -6 19 -12t28 -6q37 0 57.5 22t20.5 70v584h112v-578z" />
    <glyph glyph-name="Kcommaaccent" unicode="&#x136;" horiz-adv-x="695" 
d="M539 0l-245 340l-91 -105v-235h-119v748h119v-335l291 335h153l-273 -314l311 -434h-146zM357 -42q32 0 49.5 -22.5t17.5 -57.5q0 -65 -30.5 -117.5t-99.5 -89.5v48q51 37 62 97q-29 2 -48.5 21.5t-19.5 48.5q0 30 19.5 51t49.5 21z" />
    <glyph glyph-name="kcommaaccent" unicode="&#x137;" horiz-adv-x="557" 
d="M408 0l-164 208l-51 -52v-156h-112v777h112v-470l199 206h137l-206 -221l227 -292h-142zM293 -42q32 0 49.5 -22.5t17.5 -57.5q0 -65 -30.5 -117.5t-99.5 -89.5v48q51 37 62 97q-29 2 -48.5 21.5t-19.5 48.5q0 30 19.5 51t49.5 21z" />
    <glyph glyph-name="Lacute" unicode="&#x139;" horiz-adv-x="591" 
d="M95 795l139 147h155l-190 -147h-104zM557 106v-106h-473v748h119v-642h354z" />
    <glyph glyph-name="lacute" unicode="&#x13a;" 
d="M89 810l139 147h155l-190 -147h-104zM81 0v777h112v-777h-112z" />
    <glyph glyph-name="Lcommaaccent" unicode="&#x13b;" horiz-adv-x="591" 
d="M557 0h-473v748h119v-642h354v-106zM328 -42q32 0 49.5 -22.5t17.5 -57.5q0 -65 -30.5 -117.5t-99.5 -89.5v48q51 37 62 97q-29 2 -48.5 21.5t-19.5 48.5q0 30 19.5 51t49.5 21z" />
    <glyph glyph-name="lcommaaccent" unicode="&#x13c;" 
d="M81 0v777h112v-777h-112zM137 -42q32 0 49.5 -22.5t17.5 -57.5q0 -65 -30.5 -117.5t-99.5 -89.5v48q51 37 62 97q-29 2 -48.5 21.5t-19.5 48.5q0 30 19.5 51t49.5 21z" />
    <glyph glyph-name="Lcaron" unicode="&#x13d;" horiz-adv-x="591" 
d="M517 619q-29 2 -48.5 21.5t-19.5 48.5q0 30 19.5 51t49.5 21q32 0 49.5 -22.5t17.5 -57.5q0 -65 -30.5 -117.5t-99.5 -89.5v48q51 37 62 97zM557 106v-106h-473v748h119v-642h354z" />
    <glyph glyph-name="lcaron" unicode="&#x13e;" horiz-adv-x="407" 
d="M193 777v-777h-112v777h112zM328 761q32 0 49.5 -22.5t17.5 -57.5q0 -65 -30.5 -117.5t-99.5 -89.5v48q51 37 62 97q-29 2 -48.5 21.5t-19.5 48.5q0 30 19.5 51t49.5 21z" />
    <glyph glyph-name="Ldot" unicode="&#x13f;" horiz-adv-x="591" 
d="M557 106v-106h-473v748h119v-642h354zM449 470q30 0 51.5 -21t21.5 -52q0 -29 -21.5 -50t-51.5 -21q-29 0 -50 21t-21 50q0 31 21 52t50 21z" />
    <glyph glyph-name="ldot" unicode="&#x140;" horiz-adv-x="425" 
d="M81 0v777h112v-777h-112zM329 380q30 0 51.5 -21t21.5 -52q0 -29 -21.5 -50t-51.5 -21q-29 0 -50 21t-21 50q0 31 21 52t50 21z" />
    <glyph glyph-name="Lslash" unicode="&#x141;" horiz-adv-x="601" 
d="M569 0h-473v269l-86 -22l-14 91l100 26v384h119v-354l101 26l14 -90l-115 -30v-194h354v-106z" />
    <glyph glyph-name="lslash" unicode="&#x142;" horiz-adv-x="297" 
d="M206 0h-112v235l-89 -28l-21 89l110 35v446h112v-411l87 28l21 -89l-108 -34v-271z" />
    <glyph glyph-name="Nacute" unicode="&#x143;" horiz-adv-x="756" 
d="M321 795l139 147h155l-190 -147h-104zM572 0l-369 528v-528h-119v748h100l370 -529v529h119v-748h-101z" />
    <glyph glyph-name="nacute" unicode="&#x144;" horiz-adv-x="613" 
d="M271 596l95 191h127l-134 -191h-88zM337 522q44 0 80.5 -14.5t63 -42t41.5 -67t15 -89.5v-309h-113v294q0 58 -30.5 91t-81.5 33q-54 0 -86.5 -35.5t-32.5 -89.5v-293h-112v513h106v-68q20 34 56.5 55.5t93.5 21.5z" />
    <glyph glyph-name="Ncommaaccent" unicode="&#x145;" horiz-adv-x="756" 
d="M673 0h-101l-369 528v-528h-119v748h100l370 -529v529h119v-748zM386 -42q32 0 49.5 -22.5t17.5 -57.5q0 -65 -30.5 -117.5t-99.5 -89.5v48q51 37 62 97q-29 2 -48.5 21.5t-19.5 48.5q0 30 19.5 51t49.5 21z" />
    <glyph glyph-name="ncommaaccent" unicode="&#x146;" horiz-adv-x="613" 
d="M337 522q44 0 80.5 -14.5t63 -42t41.5 -67t15 -89.5v-309h-113v294q0 58 -30.5 91t-81.5 33q-54 0 -86.5 -35.5t-32.5 -89.5v-293h-112v513h106v-68q20 34 56.5 55.5t93.5 21.5zM311 -42q32 0 49.5 -22.5t17.5 -57.5q0 -65 -30.5 -117.5t-99.5 -89.5v48q51 37 62 97
q-29 2 -48.5 21.5t-19.5 48.5q0 30 19.5 51t49.5 21z" />
    <glyph glyph-name="Ncaron" unicode="&#x147;" horiz-adv-x="756" 
d="M320 795l-118 150h95l77 -83l76 83h96l-118 -150h-108zM572 0l-369 528v-528h-119v748h100l370 -529v529h119v-748h-101z" />
    <glyph glyph-name="ncaron" unicode="&#x148;" horiz-adv-x="613" 
d="M263 595l-118 172h95l77 -98l78 98h95l-119 -172h-108zM337 522q44 0 80.5 -14.5t63 -42t41.5 -67t15 -89.5v-309h-113v294q0 58 -30.5 91t-81.5 33q-54 0 -86.5 -35.5t-32.5 -89.5v-293h-112v513h106v-68q20 34 56.5 55.5t93.5 21.5z" />
    <glyph glyph-name="Eng" unicode="&#x14a;" horiz-adv-x="756" 
d="M673 -27q0 -50 -17 -92t-49 -72t-78 -47t-103 -17v105q60 0 94 38t34 113v25l-351 502v-528h-119v748h100l370 -529v529h119v-775z" />
    <glyph glyph-name="eng" unicode="&#x14b;" horiz-adv-x="613" 
d="M337 522q44 0 80.5 -14.5t63 -42t41.5 -67t15 -89.5v-373q0 -93 -52.5 -145t-145.5 -52v98q37 0 61 25t24 71v361q0 58 -30.5 91t-81.5 33q-54 0 -86.5 -35.5t-32.5 -89.5v-293h-112v513h106v-68q20 34 56.5 55.5t93.5 21.5z" />
    <glyph glyph-name="Omacron" unicode="&#x14c;" horiz-adv-x="870" 
d="M288 826v86h279v-86h-279zM435 758q81 0 151 -26.5t121 -76.5t80 -121t29 -160t-29 -160t-80 -121t-121 -76.5t-151 -26.5q-82 0 -152 26.5t-121 76.5t-80 121t-29 160t29 160t80 121t121 76.5t152 26.5zM435 652q-56 0 -104 -19t-83 -54.5t-54.5 -87t-19.5 -117.5
q0 -65 19.5 -116.5t54.5 -87.5t83 -55t104 -19t103.5 19t82.5 55t54.5 87.5t19.5 116.5q0 66 -19.5 117.5t-54.5 87t-82.5 54.5t-103.5 19z" />
    <glyph glyph-name="omacron" unicode="&#x14d;" horiz-adv-x="634" 
d="M176 628v87h279v-87h-279zM317 522q57 0 106 -18.5t84.5 -53t56 -84t20.5 -110.5t-20.5 -110t-56 -83.5t-84.5 -53.5t-106 -19t-106 19t-85 53.5t-56.5 83.5t-20.5 110t20.5 110.5t56.5 84t85 53t106 18.5zM317 426q-67 0 -110.5 -44.5t-43.5 -125.5q0 -80 43.5 -124.5
t110.5 -44.5q33 0 61 11.5t49 33t32.5 53t11.5 71.5t-11.5 71.5t-32.5 53.5t-49 33.5t-61 11.5z" />
    <glyph glyph-name="Obreve" unicode="&#x14e;" horiz-adv-x="870" 
d="M597 948q0 -74 -47.5 -110.5t-122.5 -36.5q-37 0 -68 9t-53.5 27.5t-35 46t-12.5 64.5h92q0 -32 21 -50.5t56 -18.5t56.5 18.5t21.5 50.5h92zM435 758q81 0 151 -26.5t121 -76.5t80 -121t29 -160t-29 -160t-80 -121t-121 -76.5t-151 -26.5q-82 0 -152 26.5t-121 76.5
t-80 121t-29 160t29 160t80 121t121 76.5t152 26.5zM435 652q-56 0 -104 -19t-83 -54.5t-54.5 -87t-19.5 -117.5q0 -65 19.5 -116.5t54.5 -87.5t83 -55t104 -19t103.5 19t82.5 55t54.5 87.5t19.5 116.5q0 66 -19.5 117.5t-54.5 87t-82.5 54.5t-103.5 19z" />
    <glyph glyph-name="obreve" unicode="&#x14f;" horiz-adv-x="634" 
d="M485 743q0 -74 -47.5 -110.5t-122.5 -36.5q-37 0 -68 9t-53.5 27.5t-35 46t-12.5 64.5h92q0 -32 21 -50.5t56 -18.5t56.5 18.5t21.5 50.5h92zM317 522q57 0 106 -18.5t84.5 -53t56 -84t20.5 -110.5t-20.5 -110t-56 -83.5t-84.5 -53.5t-106 -19t-106 19t-85 53.5
t-56.5 83.5t-20.5 110t20.5 110.5t56.5 84t85 53t106 18.5zM317 426q-67 0 -110.5 -44.5t-43.5 -125.5q0 -80 43.5 -124.5t110.5 -44.5q33 0 61 11.5t49 33t32.5 53t11.5 71.5t-11.5 71.5t-32.5 53.5t-49 33.5t-61 11.5z" />
    <glyph glyph-name="Ohungarumlaut" unicode="&#x150;" horiz-adv-x="870" 
d="M285 798l61 157h106l-79 -157h-88zM469 798l61 157h106l-79 -157h-88zM435 758q81 0 151 -26.5t121 -76.5t80 -121t29 -160t-29 -160t-80 -121t-121 -76.5t-151 -26.5q-82 0 -152 26.5t-121 76.5t-80 121t-29 160t29 160t80 121t121 76.5t152 26.5zM435 652
q-56 0 -104 -19t-83 -54.5t-54.5 -87t-19.5 -117.5q0 -65 19.5 -116.5t54.5 -87.5t83 -55t104 -19t103.5 19t82.5 55t54.5 87.5t19.5 116.5q0 66 -19.5 117.5t-54.5 87t-82.5 54.5t-103.5 19z" />
    <glyph glyph-name="ohungarumlaut" unicode="&#x151;" horiz-adv-x="634" 
d="M176 604l62 167h107l-81 -167h-88zM360 604l62 167h107l-81 -167h-88zM317 522q57 0 106 -18.5t84.5 -53t56 -84t20.5 -110.5t-20.5 -110t-56 -83.5t-84.5 -53.5t-106 -19t-106 19t-85 53.5t-56.5 83.5t-20.5 110t20.5 110.5t56.5 84t85 53t106 18.5zM317 426
q-67 0 -110.5 -44.5t-43.5 -125.5q0 -80 43.5 -124.5t110.5 -44.5q33 0 61 11.5t49 33t32.5 53t11.5 71.5t-11.5 71.5t-32.5 53.5t-49 33.5t-61 11.5z" />
    <glyph glyph-name="OE" unicode="&#x152;" horiz-adv-x="1208" 
d="M815 437h307v-103h-307v-228h351v-106h-470v83q-51 -45 -117 -69t-144 -24q-82 0 -152 26.5t-121 76.5t-80 121t-29 160t29 160t80 121t121 76.5t152 26.5q78 0 144 -24t117 -69v83h470v-105h-351v-206zM435 96q56 0 103.5 19t82.5 55t54.5 87.5t19.5 116.5
q0 66 -19.5 117.5t-54.5 87t-82.5 54.5t-103.5 19t-104 -19t-83 -54.5t-54.5 -87t-19.5 -117.5q0 -65 19.5 -116.5t54.5 -87.5t83 -55t104 -19z" />
    <glyph glyph-name="oe" unicode="&#x153;" horiz-adv-x="1016" 
d="M589 214q5 -59 41.5 -93t95.5 -34q49 0 80 19t42 54l113 -6q-8 -34 -28 -64t-50.5 -52t-69.5 -35t-84 -13q-65 0 -117 23t-87 68q-36 -44 -89.5 -67.5t-118.5 -23.5q-57 0 -106 19t-85 53.5t-56.5 83.5t-20.5 110t20.5 110.5t56.5 84t85 53t106 18.5q65 0 118 -23.5
t90 -66.5q34 44 85.5 67t115.5 23q55 0 99.5 -17.5t75.5 -50.5t48 -80t17 -105v-55h-377zM317 87q63 0 105.5 40t47.5 112v17v17q-5 73 -47.5 113t-105.5 40q-67 0 -110.5 -44.5t-43.5 -125.5q0 -80 43.5 -124.5t110.5 -44.5zM725 426q-57 0 -93.5 -32t-41.5 -92h263
q-2 56 -33.5 90t-94.5 34z" />
    <glyph glyph-name="Racute" unicode="&#x154;" horiz-adv-x="695" 
d="M263 795l139 147h155l-190 -147h-104zM368 286h-165v-286h-119v748h302q51 0 94 -15t74.5 -44t49 -72t17.5 -100q0 -81 -35 -134t-94 -77l168 -306h-134zM371 392q27 0 50 7.5t40.5 23.5t27.5 39t10 55t-10 55.5t-27.5 39.5t-40.5 23.5t-50 7.5h-169v-251h169z" />
    <glyph glyph-name="racute" unicode="&#x155;" horiz-adv-x="357" 
d="M162 596l95 191h127l-134 -191h-88zM336 410q-33 0 -59.5 -10t-45 -27.5t-28.5 -41.5t-10 -52v-279h-112v513h109v-72q14 30 49 54t97 24v-109z" />
    <glyph glyph-name="Rcommaaccent" unicode="&#x156;" horiz-adv-x="695" 
d="M526 0l-158 286h-165v-286h-119v748h302q51 0 94 -15t74.5 -44t49 -72t17.5 -100q0 -81 -35 -134t-94 -77l168 -306h-134zM371 392q27 0 50 7.5t40.5 23.5t27.5 39t10 55t-10 55.5t-27.5 39.5t-40.5 23.5t-50 7.5h-169v-251h169zM356 -42q32 0 49.5 -22.5t17.5 -57.5
q0 -65 -30.5 -117.5t-99.5 -89.5v48q51 37 62 97q-29 2 -48.5 21.5t-19.5 48.5q0 30 19.5 51t49.5 21z" />
    <glyph glyph-name="rcommaaccent" unicode="&#x157;" horiz-adv-x="357" 
d="M190 441q14 30 49 54t97 24v-109q-33 0 -59.5 -10t-45 -27.5t-28.5 -41.5t-10 -52v-279h-112v513h109v-72zM138 -42q32 0 49.5 -22.5t17.5 -57.5q0 -65 -30.5 -117.5t-99.5 -89.5v48q51 37 62 97q-29 2 -48.5 21.5t-19.5 48.5q0 30 19.5 51t49.5 21z" />
    <glyph glyph-name="Rcaron" unicode="&#x158;" horiz-adv-x="695" 
d="M144 945h95l77 -83l76 83h96l-118 -150h-108zM368 286h-165v-286h-119v748h302q51 0 94 -15t74.5 -44t49 -72t17.5 -100q0 -81 -35 -134t-94 -77l168 -306h-134zM371 392q27 0 50 7.5t40.5 23.5t27.5 39t10 55t-10 55.5t-27.5 39.5t-40.5 23.5t-50 7.5h-169v-251h169z
" />
    <glyph glyph-name="rcaron" unicode="&#x159;" horiz-adv-x="357" 
d="M154 595l-118 172h95l77 -98l78 98h95l-119 -172h-108zM336 410q-33 0 -59.5 -10t-45 -27.5t-28.5 -41.5t-10 -52v-279h-112v513h109v-72q14 30 49 54t97 24v-109z" />
    <glyph glyph-name="Sacute" unicode="&#x15a;" horiz-adv-x="659" 
d="M276 795l139 147h155l-190 -147h-104zM327 758q57 0 105 -14.5t83.5 -42.5t55.5 -68.5t22 -91.5l-121 -7q-3 57 -41.5 89t-101.5 32q-69 0 -104 -32t-35 -80q0 -28 10.5 -46.5t31.5 -31t52 -21.5t72 -18q59 -14 106.5 -31t80.5 -41.5t51 -59t18 -83.5q0 -58 -21.5 -99.5
t-58 -68.5t-86 -40t-104.5 -13q-62 0 -114 15t-91 44t-61.5 71t-24.5 97l121 7q2 -30 15.5 -54t36 -41.5t53 -26.5t65.5 -9q32 0 59.5 6t47.5 19.5t31 34.5t11 50q0 28 -12 47t-35 32t-56 23t-76 20q-50 12 -94.5 27t-77.5 38.5t-52.5 59t-19.5 89.5q0 44 16 84t48 70
t81 47.5t114 17.5z" />
    <glyph glyph-name="sacute" unicode="&#x15b;" horiz-adv-x="502" 
d="M197 596l95 191h127l-134 -191h-88zM246 522q46 0 81 -12.5t59.5 -34.5t38.5 -52t18 -64l-112 -6q-3 32 -24 52.5t-64 20.5q-40 0 -60 -15.5t-20 -41.5q0 -17 8 -26.5t22.5 -16t35 -11t46.5 -10.5q40 -10 72.5 -22t55.5 -29t36 -41.5t13 -58.5q0 -78 -53.5 -121
t-147.5 -43q-93 0 -147 43.5t-63 120.5l112 7q5 -35 29.5 -54.5t70.5 -19.5q38 0 62.5 14.5t24.5 43.5q0 16 -5.5 26.5t-18.5 18t-34.5 13.5t-52.5 14q-39 9 -71.5 19.5t-56.5 26.5t-37 40.5t-13 63.5q0 69 50.5 112t144.5 43z" />
    <glyph glyph-name="Scircumflex" unicode="&#x15c;" horiz-adv-x="659" 
d="M405 795l-76 84l-77 -84h-95l118 150h108l118 -150h-96zM327 758q57 0 105 -14.5t83.5 -42.5t55.5 -68.5t22 -91.5l-121 -7q-3 57 -41.5 89t-101.5 32q-69 0 -104 -32t-35 -80q0 -28 10.5 -46.5t31.5 -31t52 -21.5t72 -18q59 -14 106.5 -31t80.5 -41.5t51 -59t18 -83.5
q0 -58 -21.5 -99.5t-58 -68.5t-86 -40t-104.5 -13q-62 0 -114 15t-91 44t-61.5 71t-24.5 97l121 7q2 -30 15.5 -54t36 -41.5t53 -26.5t65.5 -9q32 0 59.5 6t47.5 19.5t31 34.5t11 50q0 28 -12 47t-35 32t-56 23t-76 20q-50 12 -94.5 27t-77.5 38.5t-52.5 59t-19.5 89.5
q0 44 16 84t48 70t81 47.5t114 17.5z" />
    <glyph glyph-name="scircumflex" unicode="&#x15d;" horiz-adv-x="502" 
d="M321 597l-78 98l-77 -98h-95l118 173h108l119 -173h-95zM246 522q46 0 81 -12.5t59.5 -34.5t38.5 -52t18 -64l-112 -6q-3 32 -24 52.5t-64 20.5q-40 0 -60 -15.5t-20 -41.5q0 -17 8 -26.5t22.5 -16t35 -11t46.5 -10.5q40 -10 72.5 -22t55.5 -29t36 -41.5t13 -58.5
q0 -78 -53.5 -121t-147.5 -43q-93 0 -147 43.5t-63 120.5l112 7q5 -35 29.5 -54.5t70.5 -19.5q38 0 62.5 14.5t24.5 43.5q0 16 -5.5 26.5t-18.5 18t-34.5 13.5t-52.5 14q-39 9 -71.5 19.5t-56.5 26.5t-37 40.5t-13 63.5q0 69 50.5 112t144.5 43z" />
    <glyph glyph-name="Scedilla" unicode="&#x15e;" horiz-adv-x="659" 
d="M612 211q0 -54 -19 -94.5t-52 -67.5t-77.5 -41t-95.5 -17l-9 -36q45 -5 76.5 -29t31.5 -70q0 -28 -11.5 -48.5t-30 -34t-43 -20t-50.5 -6.5q-55 0 -95 19l19 68q26 -17 66 -17q22 0 41.5 8.5t19.5 31.5q0 24 -19 33t-49 9q-11 0 -18.5 -1t-15.5 -3l28 96
q-55 4 -101.5 20.5t-80.5 45t-54 69t-22 91.5l121 7q2 -30 15.5 -54t36 -41.5t53 -26.5t65.5 -9q32 0 59.5 6t47.5 19.5t31 34.5t11 50q0 28 -12 47t-35 32t-56 23t-76 20q-50 12 -94.5 27t-77.5 38.5t-52.5 59t-19.5 89.5q0 44 16 84t48 70t81 47.5t114 17.5
q57 0 105 -14.5t83.5 -42.5t55.5 -68.5t22 -91.5l-121 -7q-3 57 -41.5 89t-101.5 32q-69 0 -104 -32t-35 -80q0 -28 10.5 -46.5t31.5 -31t52 -21.5t72 -18q59 -14 106.5 -31t80.5 -41.5t51 -59t18 -83.5z" />
    <glyph glyph-name="scedilla" unicode="&#x15f;" horiz-adv-x="502" 
d="M452 154q0 -72 -46 -114.5t-128 -48.5l-9 -36q45 -5 76.5 -29t31.5 -70q0 -28 -11.5 -48.5t-30 -34t-43 -20t-50.5 -6.5q-55 0 -95 19l19 68q26 -17 66 -17q22 0 41.5 8.5t19.5 31.5q0 24 -19 33t-49 9q-11 0 -18.5 -1t-15.5 -3l28 96q-78 8 -124 50.5t-54 112.5l112 7
q5 -35 29.5 -54.5t70.5 -19.5q38 0 62.5 14.5t24.5 43.5q0 16 -5.5 26.5t-18.5 18t-34.5 13.5t-52.5 14q-39 9 -71.5 19.5t-56.5 26.5t-37 40.5t-13 63.5q0 69 50.5 112t144.5 43q46 0 81 -12.5t59.5 -34.5t38.5 -52t18 -64l-112 -6q-3 32 -24 52.5t-64 20.5
q-40 0 -60 -15.5t-20 -41.5q0 -17 8 -26.5t22.5 -16t35 -11t46.5 -10.5q40 -10 72.5 -22t55.5 -29t36 -41.5t13 -58.5z" />
    <glyph glyph-name="Scaron" unicode="&#x160;" horiz-adv-x="659" 
d="M275 795l-118 150h95l77 -83l76 83h96l-118 -150h-108zM327 758q57 0 105 -14.5t83.5 -42.5t55.5 -68.5t22 -91.5l-121 -7q-3 57 -41.5 89t-101.5 32q-69 0 -104 -32t-35 -80q0 -28 10.5 -46.5t31.5 -31t52 -21.5t72 -18q59 -14 106.5 -31t80.5 -41.5t51 -59t18 -83.5
q0 -58 -21.5 -99.5t-58 -68.5t-86 -40t-104.5 -13q-62 0 -114 15t-91 44t-61.5 71t-24.5 97l121 7q2 -30 15.5 -54t36 -41.5t53 -26.5t65.5 -9q32 0 59.5 6t47.5 19.5t31 34.5t11 50q0 28 -12 47t-35 32t-56 23t-76 20q-50 12 -94.5 27t-77.5 38.5t-52.5 59t-19.5 89.5
q0 44 16 84t48 70t81 47.5t114 17.5z" />
    <glyph glyph-name="scaron" unicode="&#x161;" horiz-adv-x="502" 
d="M189 595l-118 172h95l77 -98l78 98h95l-119 -172h-108zM246 522q46 0 81 -12.5t59.5 -34.5t38.5 -52t18 -64l-112 -6q-3 32 -24 52.5t-64 20.5q-40 0 -60 -15.5t-20 -41.5q0 -17 8 -26.5t22.5 -16t35 -11t46.5 -10.5q40 -10 72.5 -22t55.5 -29t36 -41.5t13 -58.5
q0 -78 -53.5 -121t-147.5 -43q-93 0 -147 43.5t-63 120.5l112 7q5 -35 29.5 -54.5t70.5 -19.5q38 0 62.5 14.5t24.5 43.5q0 16 -5.5 26.5t-18.5 18t-34.5 13.5t-52.5 14q-39 9 -71.5 19.5t-56.5 26.5t-37 40.5t-13 63.5q0 69 50.5 112t144.5 43z" />
    <glyph glyph-name="Tcaron" unicode="&#x164;" horiz-adv-x="687" 
d="M292 795l-118 150h95l77 -83l76 83h96l-118 -150h-108zM403 643v-643h-119v643h-266v105h651v-105h-266z" />
    <glyph glyph-name="tcaron" unicode="&#x165;" horiz-adv-x="544" 
d="M464 761q32 0 49.5 -22.5t17.5 -57.5q0 -65 -30.5 -117.5t-99.5 -89.5v48q51 37 62 97q-29 2 -48.5 21.5t-19.5 48.5q0 30 19.5 51t49.5 21zM218 181q0 -50 25 -69t60 -19q16 0 27.5 1.5t20.5 3.5v-100q-14 -2 -31 -4t-44 -2q-38 0 -69.5 9.5t-54 30t-34.5 51.5t-12 75
l1 258h-95v97h95l1 174h113l-1 -174h130v-97h-131z" />
    <glyph glyph-name="Tbar" unicode="&#x166;" horiz-adv-x="687" 
d="M403 408h133v-91h-133v-317h-119v317h-133v91h133v235h-266v105h651v-105h-266v-235z" />
    <glyph glyph-name="tbar" unicode="&#x167;" horiz-adv-x="378" 
d="M303 93q16 0 27.5 1.5t20.5 3.5v-100q-14 -2 -31 -4t-44 -2q-38 0 -69.5 9.5t-54 30t-34.5 51.5t-12 75v68h-94v81h95v109h-95v97h95l1 174h113l-1 -174h130v-97h-131v-109h131v-81h-132v-45q0 -50 25 -69t60 -19z" />
    <glyph glyph-name="Utilde" unicode="&#x168;" horiz-adv-x="770" 
d="M311 946q24 0 41.5 -9t32.5 -20t29.5 -20t31.5 -9q23 0 34 14.5t12 36.5h64q2 -27 -4 -51t-19 -43t-32 -30t-43 -11t-41.5 9t-32.5 19.5t-29.5 19.5t-31.5 9q-23 0 -34 -14t-11 -36h-65q-2 27 4 51t18.5 43t32 30t43.5 11zM692 291q0 -72 -21.5 -128.5t-61.5 -94.5
t-97 -58t-127 -20q-71 0 -128 20t-96.5 58t-61 94.5t-21.5 128.5v457h119v-455q0 -98 48.5 -147.5t139.5 -49.5q89 0 138.5 49.5t49.5 147.5v455h119v-457z" />
    <glyph glyph-name="utilde" unicode="&#x169;" horiz-adv-x="596" 
d="M225 747q24 0 41.5 -9t32.5 -20t29.5 -20t31.5 -9q23 0 34 14t12 37h64q2 -27 -4 -51.5t-19 -43t-32 -30t-43 -11.5t-41.5 9t-32.5 20t-29.5 20t-31.5 9q-23 0 -34 -14t-11 -37h-65q-2 27 4 51.5t18.5 43.5t32 30t43.5 11zM409 0v67q-14 -29 -49.5 -53t-95.5 -24
q-44 0 -78.5 15t-59 42t-37.5 65t-13 85v316h112v-299q0 -56 26.5 -87.5t77.5 -31.5q26 0 46.5 10t35 27.5t22 40t7.5 47.5v293h112v-513h-106z" />
    <glyph glyph-name="Umacron" unicode="&#x16a;" horiz-adv-x="770" 
d="M245 826v86h279v-86h-279zM692 291q0 -72 -21.5 -128.5t-61.5 -94.5t-97 -58t-127 -20q-71 0 -128 20t-96.5 58t-61 94.5t-21.5 128.5v457h119v-455q0 -98 48.5 -147.5t139.5 -49.5q89 0 138.5 49.5t49.5 147.5v455h119v-457z" />
    <glyph glyph-name="umacron" unicode="&#x16b;" horiz-adv-x="596" 
d="M160 628v87h279v-87h-279zM409 0v67q-14 -29 -49.5 -53t-95.5 -24q-44 0 -78.5 15t-59 42t-37.5 65t-13 85v316h112v-299q0 -56 26.5 -87.5t77.5 -31.5q26 0 46.5 10t35 27.5t22 40t7.5 47.5v293h112v-513h-106z" />
    <glyph glyph-name="Ubreve" unicode="&#x16c;" horiz-adv-x="770" 
d="M554 948q0 -74 -47.5 -110.5t-122.5 -36.5q-37 0 -68 9t-53.5 27.5t-35 46t-12.5 64.5h92q0 -32 21 -50.5t56 -18.5t56.5 18.5t21.5 50.5h92zM692 291q0 -72 -21.5 -128.5t-61.5 -94.5t-97 -58t-127 -20q-71 0 -128 20t-96.5 58t-61 94.5t-21.5 128.5v457h119v-455
q0 -98 48.5 -147.5t139.5 -49.5q89 0 138.5 49.5t49.5 147.5v455h119v-457z" />
    <glyph glyph-name="ubreve" unicode="&#x16d;" horiz-adv-x="596" 
d="M469 743q0 -74 -47.5 -110.5t-122.5 -36.5q-37 0 -68 9t-53.5 27.5t-35 46t-12.5 64.5h92q0 -32 21 -50.5t56 -18.5t56.5 18.5t21.5 50.5h92zM409 0v67q-14 -29 -49.5 -53t-95.5 -24q-44 0 -78.5 15t-59 42t-37.5 65t-13 85v316h112v-299q0 -56 26.5 -87.5t77.5 -31.5
q26 0 46.5 10t35 27.5t22 40t7.5 47.5v293h112v-513h-106z" />
    <glyph glyph-name="Uring" unicode="&#x16e;" horiz-adv-x="770" 
d="M385 997q22 0 41.5 -7.5t34 -21t23 -32.5t8.5 -41q0 -45 -31 -73.5t-76 -28.5q-46 0 -77.5 28.5t-31.5 73.5t31.5 73.5t77.5 28.5zM385 940q-21 0 -34 -12.5t-13 -32.5t13 -32.5t34 -12.5q20 0 32.5 12.5t12.5 32.5t-12.5 32.5t-32.5 12.5zM692 291q0 -72 -21.5 -128.5
t-61.5 -94.5t-97 -58t-127 -20q-71 0 -128 20t-96.5 58t-61 94.5t-21.5 128.5v457h119v-455q0 -98 48.5 -147.5t139.5 -49.5q89 0 138.5 49.5t49.5 147.5v455h119v-457z" />
    <glyph glyph-name="uring" unicode="&#x16f;" horiz-adv-x="596" 
d="M300 809q25 0 47 -8.5t38.5 -23.5t26 -35.5t9.5 -45.5t-9.5 -46t-26 -36t-38.5 -23.5t-47 -8.5q-26 0 -48 8.5t-38.5 23.5t-26 36t-9.5 46t9.5 45.5t26 35.5t38.5 23.5t48 8.5zM300 744q-23 0 -37 -13.5t-14 -34.5q0 -22 14 -35t37 -13q22 0 36 13t14 35q0 21 -14 34.5
t-36 13.5zM409 0v67q-14 -29 -49.5 -53t-95.5 -24q-44 0 -78.5 15t-59 42t-37.5 65t-13 85v316h112v-299q0 -56 26.5 -87.5t77.5 -31.5q26 0 46.5 10t35 27.5t22 40t7.5 47.5v293h112v-513h-106z" />
    <glyph glyph-name="Uhungarumlaut" unicode="&#x170;" horiz-adv-x="770" 
d="M242 798l61 157h106l-79 -157h-88zM426 798l61 157h106l-79 -157h-88zM692 291q0 -72 -21.5 -128.5t-61.5 -94.5t-97 -58t-127 -20q-71 0 -128 20t-96.5 58t-61 94.5t-21.5 128.5v457h119v-455q0 -98 48.5 -147.5t139.5 -49.5q89 0 138.5 49.5t49.5 147.5v455h119v-457z
" />
    <glyph glyph-name="uhungarumlaut" unicode="&#x171;" horiz-adv-x="596" 
d="M160 604l62 167h107l-81 -167h-88zM344 604l62 167h107l-81 -167h-88zM409 0v67q-14 -29 -49.5 -53t-95.5 -24q-44 0 -78.5 15t-59 42t-37.5 65t-13 85v316h112v-299q0 -56 26.5 -87.5t77.5 -31.5q26 0 46.5 10t35 27.5t22 40t7.5 47.5v293h112v-513h-106z" />
    <glyph glyph-name="Uogonek" unicode="&#x172;" horiz-adv-x="770" 
d="M692 291q0 -121 -57.5 -195t-159.5 -97q-38 -20 -59.5 -39t-21.5 -47q0 -20 13.5 -30.5t36.5 -10.5q29 0 53 12l11 -56q-17 -8 -36.5 -12.5t-46.5 -4.5q-48 0 -81.5 21.5t-33.5 67.5q0 29 16 51t45 39q-68 2 -122 23t-92 59t-58.5 93t-20.5 126v457h119v-455
q0 -98 48.5 -147.5t139.5 -49.5q89 0 138.5 49.5t49.5 147.5v455h119v-457z" />
    <glyph glyph-name="uogonek" unicode="&#x173;" horiz-adv-x="596" 
d="M522 -173q-17 -8 -36.5 -12.5t-46.5 -4.5q-48 0 -81.5 21.5t-33.5 67.5q0 35 23 59.5t62 43.5v65q-14 -29 -49.5 -53t-95.5 -24q-44 0 -78.5 15t-59 42t-37.5 65t-13 85v316h112v-299q0 -56 26.5 -87.5t77.5 -31.5q26 0 46.5 10t35 27.5t22 40t7.5 47.5v293h112v-513h-23
q-39 -21 -61.5 -40t-22.5 -48q0 -20 13.5 -30.5t36.5 -10.5q29 0 53 12z" />
    <glyph glyph-name="Wcircumflex" unicode="&#x174;" horiz-adv-x="1121" 
d="M637 795l-76 84l-77 -84h-95l118 150h108l118 -150h-96zM744 0l-183 529l-182 -529h-101l-261 748h128l185 -537l182 537h98l183 -537l184 537h128l-261 -748h-100z" />
    <glyph glyph-name="wcircumflex" unicode="&#x175;" horiz-adv-x="832" 
d="M494 597l-78 98l-77 -98h-95l118 173h108l119 -173h-95zM538 0l-122 325l-123 -325h-89l-196 513h121l123 -330l124 330h79l125 -330l123 330h121l-196 -513h-90z" />
    <glyph glyph-name="Ycircumflex" unicode="&#x176;" horiz-adv-x="715" 
d="M434 795l-76 84l-77 -84h-95l118 150h108l118 -150h-96zM417 0h-118v301l-284 447h138l205 -329l204 329h138l-283 -447v-301z" />
    <glyph glyph-name="ycircumflex" unicode="&#x177;" horiz-adv-x="549" 
d="M353 597l-78 98l-77 -98h-95l118 173h108l119 -173h-95zM89 -255l126 291l-203 477h125l138 -351l138 351h125l-326 -768h-123z" />
    <glyph glyph-name="Ydieresis" unicode="&#x178;" horiz-adv-x="715" 
d="M275 936q26 0 45 -18.5t19 -44.5q0 -27 -19 -45.5t-45 -18.5q-27 0 -45.5 18.5t-18.5 45.5q0 26 18.5 44.5t45.5 18.5zM443 936q27 0 45.5 -18.5t18.5 -44.5q0 -27 -18.5 -45.5t-45.5 -18.5q-26 0 -45 18.5t-19 45.5q0 26 19 44.5t45 18.5zM417 0h-118v301l-284 447h138
l205 -329l204 329h138l-283 -447v-301z" />
    <glyph glyph-name="Zacute" unicode="&#x179;" horiz-adv-x="621" 
d="M257 795l139 147h155l-190 -147h-104zM188 106h398v-106h-550v90l388 553h-378v105h531v-90z" />
    <glyph glyph-name="zacute" unicode="&#x17a;" horiz-adv-x="451" 
d="M183 596l95 191h127l-134 -191h-88zM164 91h255v-91h-386v74l246 347h-240v92h370v-75z" />
    <glyph glyph-name="Zdotaccent" unicode="&#x17b;" horiz-adv-x="621" 
d="M310 946q29 0 50 -21t21 -50q0 -30 -21 -50.5t-50 -20.5t-50 20.5t-21 50.5q0 29 21 50t50 21zM188 106h398v-106h-550v90l388 553h-378v105h531v-90z" />
    <glyph glyph-name="zdotaccent" unicode="&#x17c;" horiz-adv-x="451" 
d="M229 752q29 0 50 -21t21 -50t-21 -50t-50 -21t-50 21t-21 50t21 50t50 21zM164 91h255v-91h-386v74l246 347h-240v92h370v-75z" />
    <glyph glyph-name="Zcaron" unicode="&#x17d;" horiz-adv-x="621" 
d="M256 795l-118 150h95l77 -83l76 83h96l-118 -150h-108zM188 106h398v-106h-550v90l388 553h-378v105h531v-90z" />
    <glyph glyph-name="zcaron" unicode="&#x17e;" horiz-adv-x="451" 
d="M175 595l-118 172h95l77 -98l78 98h95l-119 -172h-108zM164 91h255v-91h-386v74l246 347h-240v92h370v-75z" />
    <glyph glyph-name="florin" unicode="&#x192;" horiz-adv-x="437" 
d="M350 786q49 0 82.5 -12.5t57.5 -30.5l-46 -92q-14 14 -34 24.5t-48 10.5q-34 0 -54.5 -18t-28.5 -62l-17 -93h140v-94h-156l-100 -561h-114l99 561h-103v94h120l20 112q14 85 63 123t119 38z" />
    <glyph glyph-name="Aringacute" unicode="&#x1fa;" horiz-adv-x="758" 
d="M387 772q-46 0 -77.5 28.5t-31.5 73.5q0 27 12.5 48.5t32.5 35.5l127 112h142l-158 -104q27 -12 43.5 -36t16.5 -56q0 -45 -31 -73.5t-76 -28.5zM387 829q20 0 32.5 12.5t12.5 32.5t-12.5 32.5t-32.5 12.5q-21 0 -34 -12.5t-13 -32.5t13 -32.5t34 -12.5zM615 0l-69 167
h-334l-70 -167h-130l316 748h101l317 -748h-131zM380 564l-122 -291h243z" />
    <glyph glyph-name="aringacute" unicode="&#x1fb;" horiz-adv-x="548" 
d="M277 579q-46 0 -77.5 28.5t-31.5 73.5q0 26 10.5 46t29.5 34l132 116h142l-159 -103q27 -12 44 -36.5t17 -56.5q0 -45 -31 -73.5t-76 -28.5zM277 636q20 0 32.5 12.5t12.5 32.5t-12.5 32.5t-32.5 12.5q-21 0 -34 -12.5t-13 -32.5t13 -32.5t34 -12.5zM267 522
q100 0 152.5 -52t52.5 -151v-319h-113v46q-27 -26 -61.5 -41t-77.5 -15q-77 0 -124 39t-47 111q0 41 14.5 69.5t40 47t60 27.5t73.5 11l122 7v15q0 50 -21.5 78.5t-69.5 28.5t-70 -26t-22 -61l-113 4q0 34 14 66.5t40 58t64 41t86 15.5zM253 208q-40 -2 -65.5 -16.5
t-25.5 -49.5q0 -32 21.5 -45t55.5 -13q54 0 87.5 27t33.5 86v18z" />
    <glyph glyph-name="AEacute" unicode="&#x1fc;" horiz-adv-x="1034" 
d="M605 795l139 147h155l-190 -147h-104zM641 437h307v-103h-307v-228h351v-106h-470v167h-259l-111 -167h-145l501 748h484v-105h-351v-206zM522 559l-189 -286h189v286z" />
    <glyph glyph-name="aeacute" unicode="&#x1fd;" horiz-adv-x="906" 
d="M391 596l95 191h127l-134 -191h-88zM480 214q5 -59 41.5 -93t95.5 -34q49 0 80 19t42 54l113 -6q-8 -34 -28 -64t-50.5 -52t-69.5 -35t-84 -13q-64 0 -115.5 23t-86.5 66q-32 -41 -79.5 -65t-113.5 -24q-80 0 -128 40t-48 112q0 42 14.5 70t40 46t60 26.5t73.5 10.5
l122 7v15q0 50 -21.5 79.5t-69.5 29.5t-70 -27t-22 -62l-113 4q0 34 14 66.5t40 58t64 41t86 15.5q111 0 162 -74q71 74 188 74q55 0 99.5 -17.5t75.5 -50.5t48 -80t17 -105v-55h-377zM616 426q-57 0 -93.5 -32t-41.5 -92h263q-2 56 -33.5 90t-94.5 34zM253 208
q-40 -2 -65.5 -15.5t-25.5 -48.5q0 -32 21.5 -44.5t55.5 -12.5q22 0 44 5t39 17.5t27.5 34t10.5 53.5v18z" />
    <glyph glyph-name="Oslashacute" unicode="&#x1fe;" horiz-adv-x="856" 
d="M375 795l139 147h155l-190 -147h-104zM703 659q53 -51 83 -122.5t30 -162.5q0 -89 -29 -160t-80 -121t-121 -76.5t-151 -26.5q-115 0 -205 52l-63 -83l-73 55l64 83q-50 51 -77.5 120t-27.5 157q0 89 29 160t80 121t121 76.5t152 26.5q107 0 194 -46l60 79l73 -55z
M174 374q0 -57 14.5 -102.5t41.5 -80.5l331 432q-56 29 -126 29q-56 0 -104 -19t-83 -54.5t-54.5 -87t-19.5 -117.5zM435 96q56 0 103.5 19t82.5 55t54.5 87.5t19.5 116.5q0 60 -17 108.5t-46 83.5l-334 -435q59 -35 137 -35z" />
    <glyph glyph-name="oslashacute" unicode="&#x1ff;" horiz-adv-x="634" 
d="M270 596l95 191h127l-134 -191h-88zM511 447q35 -35 54 -83t19 -108q0 -61 -20.5 -110t-56 -83.5t-84.5 -53.5t-106 -19q-71 0 -129 29l-44 -58l-62 46l43 56q-36 35 -56 84t-20 109q0 61 20.5 110.5t56.5 84t85 53t106 18.5q74 0 131 -30l39 51l62 -46zM163 256
q0 -61 28 -105l196 260q-32 15 -70 15q-67 0 -110.5 -44.5t-43.5 -125.5zM317 87q33 0 61 11.5t49 33t32.5 53t11.5 71.5q0 62 -26 103l-195 -258q31 -14 67 -14z" />
    <glyph glyph-name="Scommaaccent" unicode="&#x218;" horiz-adv-x="659" 
d="M356 426q59 -14 106.5 -31t80.5 -41.5t51 -59t18 -83.5q0 -58 -21.5 -99.5t-58 -68.5t-86 -40t-104.5 -13q-62 0 -114 15t-91 44t-61.5 71t-24.5 97l121 7q2 -30 15.5 -54t36 -41.5t53 -26.5t65.5 -9q32 0 59.5 6t47.5 19.5t31 34.5t11 50q0 28 -12 47t-35 32t-56 23
t-76 20q-50 12 -94.5 27t-77.5 38.5t-52.5 59t-19.5 89.5q0 44 16 84t48 70t81 47.5t114 17.5q57 0 105 -14.5t83.5 -42.5t55.5 -68.5t22 -91.5l-121 -7q-3 57 -41.5 89t-101.5 32q-69 0 -104 -32t-35 -80q0 -28 10.5 -46.5t31.5 -31t52 -21.5t72 -18zM338 -47
q32 0 49.5 -22.5t17.5 -57.5q0 -65 -30.5 -117.5t-99.5 -89.5v48q51 37 62 97q-29 2 -48.5 21.5t-19.5 48.5q0 30 19.5 51t49.5 21z" />
    <glyph glyph-name="scommaaccent" unicode="&#x219;" horiz-adv-x="502" 
d="M275 305q40 -10 72.5 -22t55.5 -29t36 -41.5t13 -58.5q0 -78 -53.5 -121t-147.5 -43q-93 0 -147 43.5t-63 120.5l112 7q5 -35 29.5 -54.5t70.5 -19.5q38 0 62.5 14.5t24.5 43.5q0 16 -5.5 26.5t-18.5 18t-34.5 13.5t-52.5 14q-39 9 -71.5 19.5t-56.5 26.5t-37 40.5
t-13 63.5q0 69 50.5 112t144.5 43q46 0 81 -12.5t59.5 -34.5t38.5 -52t18 -64l-112 -6q-3 32 -24 52.5t-64 20.5q-40 0 -60 -15.5t-20 -41.5q0 -17 8 -26.5t22.5 -16t35 -11t46.5 -10.5zM248 -47q32 0 49.5 -22.5t17.5 -57.5q0 -65 -30.5 -117.5t-99.5 -89.5v48q51 37 62 97
q-29 2 -48.5 21.5t-19.5 48.5q0 30 19.5 51t49.5 21z" />
    <glyph glyph-name="uni021A" unicode="&#x21a;" horiz-adv-x="687" 
d="M669 643h-266v-643h-119v643h-266v105h651v-105zM344 -42q32 0 49.5 -22.5t17.5 -57.5q0 -65 -30.5 -117.5t-99.5 -89.5v48q51 37 62 97q-29 2 -48.5 21.5t-19.5 48.5q0 30 19.5 51t49.5 21z" />
    <glyph glyph-name="uni021B" unicode="&#x21b;" horiz-adv-x="378" 
d="M303 93q16 0 27.5 1.5t20.5 3.5v-100q-14 -2 -31 -4t-44 -2q-38 0 -69.5 9.5t-54 30t-34.5 51.5t-12 75l1 258h-95v97h95l1 174h113l-1 -174h130v-97h-131l-1 -235q0 -50 25 -69t60 -19zM221 -50q32 0 49.5 -22.5t17.5 -57.5q0 -65 -30.5 -117.5t-99.5 -89.5v48
q51 37 62 97q-29 2 -48.5 21.5t-19.5 48.5q0 30 19.5 51t49.5 21z" />
    <glyph glyph-name="dotlessj" unicode="&#x237;" 
d="M194 -65q0 -52 -13 -89.5t-37 -61.5t-56.5 -35.5t-71.5 -11.5q-35 0 -60 7.5t-43 18.5l44 92q8 -6 19 -12t28 -6q37 0 57.5 22t20.5 70v584h112v-578z" />
    <glyph glyph-name="circumflex" unicode="&#x2c6;" horiz-adv-x="370" 
d="M263 597l-78 98l-77 -98h-95l118 173h108l119 -173h-95z" />
    <glyph glyph-name="caron" unicode="&#x2c7;" horiz-adv-x="370" 
d="M131 595l-118 172h95l77 -98l78 98h95l-119 -172h-108z" />
    <glyph glyph-name="breve" unicode="&#x2d8;" horiz-adv-x="370" 
d="M354 743q0 -74 -47.5 -110.5t-122.5 -36.5q-37 0 -68 9t-53.5 27.5t-35 46t-12.5 64.5h92q0 -32 21 -50.5t56 -18.5t56.5 18.5t21.5 50.5h92z" />
    <glyph glyph-name="dotaccent" unicode="&#x2d9;" horiz-adv-x="173" 
d="M86 752q29 0 50 -21t21 -50t-21 -50t-50 -21t-50 21t-21 50t21 50t50 21z" />
    <glyph glyph-name="ring" unicode="&#x2da;" horiz-adv-x="272" 
d="M137 809q25 0 47 -8.5t38.5 -23.5t26 -35.5t9.5 -45.5t-9.5 -46t-26 -36t-38.5 -23.5t-47 -8.5q-26 0 -48 8.5t-38.5 23.5t-26 36t-9.5 46t9.5 45.5t26 35.5t38.5 23.5t48 8.5zM137 744q-23 0 -37 -13.5t-14 -34.5q0 -22 14 -35t37 -13q22 0 36 13t14 35q0 21 -14 34.5
t-36 13.5z" />
    <glyph glyph-name="ogonek" unicode="&#x2db;" horiz-adv-x="233" 
d="M191 4q-40 -21 -63 -40.5t-23 -48.5q0 -20 13.5 -30.5t36.5 -10.5q29 0 53 12l11 -56q-17 -8 -36.5 -12.5t-46.5 -4.5q-48 0 -81.5 21.5t-33.5 67.5q0 24 11 43.5t31.5 34.5t48.5 27t61 23z" />
    <glyph glyph-name="tilde" unicode="&#x2dc;" horiz-adv-x="371" 
d="M112 747q24 0 41.5 -9t32.5 -20t29.5 -20t31.5 -9q23 0 34 14t12 37h64q2 -27 -4 -51.5t-19 -43t-32 -30t-43 -11.5t-41.5 9t-32.5 20t-29.5 20t-31.5 9q-23 0 -34 -14t-11 -37h-65q-2 27 4 51.5t18.5 43.5t32 30t43.5 11z" />
    <glyph glyph-name="hungarumlaut" unicode="&#x2dd;" horiz-adv-x="380" 
d="M14 604l62 167h107l-81 -167h-88zM198 604l62 167h107l-81 -167h-88z" />
    <glyph glyph-name="uni0326" unicode="&#x326;" horiz-adv-x="0" 
d="M111 -42q32 0 49.5 -22.5t17.5 -57.5q0 -65 -30.5 -117.5t-99.5 -89.5v48q51 37 62 97q-29 2 -48.5 21.5t-19.5 48.5q0 30 19.5 51t49.5 21z" />
    <glyph glyph-name="Omega" unicode="&#x3a9;" horiz-adv-x="790" 
d="M395 722q78 0 138.5 -26.5t102.5 -73t64 -110t22 -136.5q0 -49 -12 -93t-30.5 -81t-40.5 -66.5t-42 -48.5h171v-87h-292v80q28 19 55 49.5t48.5 69t35 82.5t13.5 91q0 57 -15.5 105t-45.5 83.5t-73.5 55t-98.5 19.5q-56 0 -99 -19.5t-73 -55t-45.5 -83.5t-15.5 -105
q0 -47 13.5 -91t35 -82.5t48.5 -69t55 -49.5v-80h-292v87h171q-20 19 -42 48.5t-40.5 66.5t-30.5 81t-12 93q0 73 22 136t64 109.5t102.5 73.5t138.5 27z" />
    <glyph glyph-name="mu" unicode="&#x3bc;" horiz-adv-x="601" 
d="M520 0h-106v67q-14 -29 -49.5 -53t-95.5 -24q-42 0 -76 14v-259h-112v768h112v-299q0 -56 26.5 -87.5t77.5 -31.5q26 0 46.5 10t35 27.5t22 40t7.5 47.5v293h112v-513z" />
    <glyph glyph-name="pi" unicode="&#x3c0;" horiz-adv-x="687" 
d="M660 477q-8 -23 -20.5 -44t-30.5 -37.5t-42 -26t-57 -9.5h-15l-28 -226q-6 -48 32 -48q14 0 25 6t22 14l50 -66q-23 -23 -49.5 -35.5t-63.5 -12.5q-63 0 -88 37t-18 99l28 232h-111l-26 -208q-8 -55 -19.5 -90t-25.5 -62h-105q10 22 19 41.5t16 39.5t12.5 42t9.5 48
l24 189h-28q-32 0 -54 -14t-38 -32l-52 77q15 15 30.5 27.5t35 21.5t44 14.5t56.5 5.5h261q27 0 46 4.5t32.5 13t23 21t17.5 28.5z" />
    <glyph glyph-name="Wgrave" unicode="&#x1e80;" horiz-adv-x="1121" 
d="M504 795l-190 147h155l139 -147h-104zM744 0l-183 529l-182 -529h-101l-261 748h128l185 -537l182 537h98l183 -537l184 537h128l-261 -748h-100z" />
    <glyph glyph-name="wgrave" unicode="&#x1e81;" horiz-adv-x="832" 
d="M369 596l-134 191h128l94 -191h-88zM538 0l-122 325l-123 -325h-89l-196 513h121l123 -330l124 330h79l125 -330l123 330h121l-196 -513h-90z" />
    <glyph glyph-name="Wacute" unicode="&#x1e82;" horiz-adv-x="1121" 
d="M508 795l139 147h155l-190 -147h-104zM744 0l-183 529l-182 -529h-101l-261 748h128l185 -537l182 537h98l183 -537l184 537h128l-261 -748h-100z" />
    <glyph glyph-name="wacute" unicode="&#x1e83;" horiz-adv-x="832" 
d="M370 596l95 191h127l-134 -191h-88zM538 0l-122 325l-123 -325h-89l-196 513h121l123 -330l124 330h79l125 -330l123 330h121l-196 -513h-90z" />
    <glyph glyph-name="Wdieresis" unicode="&#x1e84;" horiz-adv-x="1121" 
d="M478 936q26 0 45 -18.5t19 -44.5q0 -27 -19 -45.5t-45 -18.5q-27 0 -45.5 18.5t-18.5 45.5q0 26 18.5 44.5t45.5 18.5zM646 936q27 0 45.5 -18.5t18.5 -44.5q0 -27 -18.5 -45.5t-45.5 -18.5q-26 0 -45 18.5t-19 45.5q0 26 19 44.5t45 18.5zM744 0l-183 529l-182 -529
h-101l-261 748h128l185 -537l182 537h98l183 -537l184 537h128l-261 -748h-100z" />
    <glyph glyph-name="wdieresis" unicode="&#x1e85;" horiz-adv-x="832" 
d="M330 743q26 0 45 -18.5t19 -44.5q0 -27 -19 -45t-45 -18q-27 0 -45.5 18t-18.5 45q0 26 18.5 44.5t45.5 18.5zM498 743q27 0 45.5 -18.5t18.5 -44.5q0 -27 -18.5 -45t-45.5 -18q-26 0 -45 18t-19 45q0 26 19 44.5t45 18.5zM538 0l-122 325l-123 -325h-89l-196 513h121
l123 -330l124 330h79l125 -330l123 330h121l-196 -513h-90z" />
    <glyph glyph-name="Ygrave" unicode="&#x1ef2;" horiz-adv-x="715" 
d="M301 795l-190 147h155l139 -147h-104zM417 0h-118v301l-284 447h138l205 -329l204 329h138l-283 -447v-301z" />
    <glyph glyph-name="ygrave" unicode="&#x1ef3;" horiz-adv-x="549" 
d="M228 596l-134 191h128l94 -191h-88zM89 -255l126 291l-203 477h125l138 -351l138 351h125l-326 -768h-123z" />
    <glyph glyph-name="endash" unicode="&#x2013;" horiz-adv-x="564" 
d="M45 209v105h474v-105h-474z" />
    <glyph glyph-name="emdash" unicode="&#x2014;" horiz-adv-x="796" 
d="M45 209v105h706v-105h-706z" />
    <glyph glyph-name="quoteleft" unicode="&#x2018;" horiz-adv-x="201" 
d="M107 616q29 -2 48.5 -21.5t19.5 -48.5q0 -30 -19.5 -51t-49.5 -21q-32 0 -49.5 22.5t-17.5 57.5q0 65 30.5 117.5t99.5 89.5v-48q-51 -37 -62 -97z" />
    <glyph glyph-name="quoteright" unicode="&#x2019;" horiz-adv-x="201" 
d="M95 761q32 0 49.5 -22.5t17.5 -57.5q0 -65 -30.5 -117.5t-99.5 -89.5v48q51 37 62 97q-29 2 -48.5 21.5t-19.5 48.5q0 30 19.5 51t49.5 21z" />
    <glyph glyph-name="quotesinglbase" unicode="&#x201a;" horiz-adv-x="201" 
d="M95 133q32 0 49.5 -22.5t17.5 -57.5q0 -65 -30.5 -117.5t-99.5 -89.5v48q51 37 62 97q-29 2 -48.5 21.5t-19.5 48.5q0 30 19.5 51t49.5 21z" />
    <glyph glyph-name="quotedblleft" unicode="&#x201c;" horiz-adv-x="386" 
d="M103 616q29 -2 48.5 -21.5t19.5 -48.5q0 -30 -19.5 -51t-49.5 -21q-32 0 -49.5 22.5t-17.5 57.5q0 65 30.5 117.5t99.5 89.5v-48q-51 -37 -62 -97zM289 616q29 -2 48.5 -21.5t19.5 -48.5q0 -30 -19.5 -51t-49.5 -21q-32 0 -49.5 22.5t-17.5 57.5q0 65 30.5 117.5
t99.5 89.5v-48q-51 -37 -62 -97z" />
    <glyph glyph-name="quotedblright" unicode="&#x201d;" horiz-adv-x="386" 
d="M91 761q32 0 49.5 -22.5t17.5 -57.5q0 -65 -30.5 -117.5t-99.5 -89.5v48q51 37 62 97q-29 2 -48.5 21.5t-19.5 48.5q0 30 19.5 51t49.5 21zM277 761q32 0 49.5 -22.5t17.5 -57.5q0 -65 -30.5 -117.5t-99.5 -89.5v48q51 37 62 97q-29 2 -48.5 21.5t-19.5 48.5
q0 30 19.5 51t49.5 21z" />
    <glyph glyph-name="quotedblbase" unicode="&#x201e;" horiz-adv-x="386" 
d="M95 133q32 0 49.5 -22.5t17.5 -57.5q0 -65 -30.5 -117.5t-99.5 -89.5v48q51 37 62 97q-29 2 -48.5 21.5t-19.5 48.5q0 30 19.5 51t49.5 21zM280 133q32 0 49.5 -22.5t17.5 -57.5q0 -65 -30.5 -117.5t-99.5 -89.5v48q51 37 62 97q-29 2 -48.5 21.5t-19.5 48.5
q0 30 19.5 51t49.5 21z" />
    <glyph glyph-name="dagger" unicode="&#x2020;" horiz-adv-x="511" 
d="M493 548v-101h-181v-514h-112v514h-181v101h181v200h112v-200h181z" />
    <glyph glyph-name="daggerdbl" unicode="&#x2021;" horiz-adv-x="511" 
d="M493 548v-101h-181v-212h181v-102h-181v-200h-112v200h-181v102h181v212h-181v101h181v200h112v-200h181z" />
    <glyph glyph-name="bullet" unicode="&#x2022;" horiz-adv-x="349" 
d="M175 378q25 0 47.5 -9.5t39 -26.5t26 -39.5t9.5 -47.5q0 -26 -9.5 -48.5t-26 -39.5t-39 -26.5t-47.5 -9.5q-26 0 -48.5 9.5t-39.5 26.5t-26.5 39.5t-9.5 48.5q0 25 9.5 47.5t26.5 39.5t39.5 26.5t48.5 9.5z" />
    <glyph glyph-name="ellipsis" unicode="&#x2026;" horiz-adv-x="692" 
d="M113 134q30 0 51.5 -21t21.5 -52q0 -29 -21.5 -50t-51.5 -21q-29 0 -50 21t-21 50q0 31 21 52t50 21zM339 134q30 0 51.5 -21t21.5 -52q0 -29 -21.5 -50t-51.5 -21q-29 0 -50 21t-21 50q0 31 21 52t50 21zM566 134q30 0 51.5 -21t21.5 -52q0 -29 -21.5 -50t-51.5 -21
q-29 0 -50 21t-21 50q0 31 21 52t50 21z" />
    <glyph glyph-name="perthousand" unicode="&#x2030;" horiz-adv-x="1254" 
d="M204 758q37 0 68 -12.5t53.5 -36.5t35 -57.5t12.5 -75.5t-12.5 -75.5t-35 -57.5t-53.5 -37t-68 -13q-36 0 -67 13t-53.5 37t-35.5 57.5t-13 75.5t13 75.5t35.5 57.5t53.5 36.5t67 12.5zM120 0l513 748h109l-513 -748h-109zM204 679q-38 0 -62 -27t-24 -76t24 -76.5
t62 -27.5t62 27t24 77q0 49 -24 76t-62 27zM658 355q37 0 68 -12.5t53.5 -36.5t35 -57.5t12.5 -75.5t-12.5 -75.5t-35 -57.5t-53.5 -37t-68 -13q-36 0 -67 13t-53.5 37t-35.5 57.5t-13 75.5t13 75.5t35.5 57.5t53.5 36.5t67 12.5zM1050 355q37 0 68 -12.5t53.5 -36.5
t35 -57.5t12.5 -75.5t-12.5 -75.5t-35 -57.5t-53.5 -37t-68 -13q-36 0 -67 13t-53.5 37t-35.5 57.5t-13 75.5t13 75.5t35.5 57.5t53.5 36.5t67 12.5zM658 276q-38 0 -62 -27t-24 -76t24 -76.5t62 -27.5t62 27t24 77q0 49 -24 76t-62 27zM1050 276q-38 0 -62 -27t-24 -76
t24 -76.5t62 -27.5t62 27t24 77q0 49 -24 76t-62 27z" />
    <glyph glyph-name="guilsinglleft" unicode="&#x2039;" horiz-adv-x="320" 
d="M151 256l151 -153l-81 -71l-206 224l206 224l81 -71z" />
    <glyph glyph-name="guilsinglright" unicode="&#x203a;" horiz-adv-x="320" 
d="M99 32l-80 71l151 153l-151 153l80 71l207 -224z" />
    <glyph glyph-name="fraction" unicode="&#x2044;" horiz-adv-x="208" 
d="M-212 0l518 748h115l-518 -748h-115z" />
    <glyph glyph-name="Euro" unicode="&#x20ac;" horiz-adv-x="706" 
d="M665 55q-46 -32 -96.5 -48.5t-122.5 -16.5q-57 0 -108.5 17.5t-94 51t-73.5 82.5t-47 112h-114l26 70h76q-1 12 -1.5 24.5t-0.5 26.5q0 12 0.5 24t1.5 24h-102l26 70h87q15 64 46.5 114t74.5 83.5t95.5 51t109.5 17.5q67 0 115 -16t90 -48l-37 -98q-32 26 -71 41t-92 15
q-75 0 -129 -41t-78 -119h327l-26 -70h-315q-1 -11 -1.5 -23t-0.5 -25q0 -27 3 -51h273l-26 -70h-233q25 -78 79.5 -117.5t126.5 -39.5q51 0 91 16t71 42z" />
    <glyph glyph-name="trademark" unicode="&#x2122;" horiz-adv-x="887" 
d="M234 668v-279h-83v279h-124v80h332v-80h-125zM741 389v181l-104 -178h-38l-104 178v-181h-83v359h70l136 -235l136 235h70v-359h-83z" />
    <glyph glyph-name="estimated" unicode="&#x212e;" horiz-adv-x="610" 
d="M318 539q52 0 97.5 -16.5t79.5 -49.5t53.5 -81t19.5 -111h-400v-176q0 -18 5.5 -32.5t24.5 -23.5q23 -18 53.5 -26.5t66.5 -8.5q74 0 131 35t93 92l21 -14q-42 -64 -104.5 -101.5t-140.5 -37.5q-58 0 -108.5 19.5t-87.5 55.5t-58.5 86.5t-21.5 112.5t21.5 113t58.5 87.5
t87.5 56.5t108.5 20zM318 513q-37 0 -68 -9.5t-53 -25.5q-17 -8 -23 -23t-6 -31v-118h284v119q0 26 -5.5 38.5t-25.5 22.5q-21 14 -47 20.5t-56 6.5z" />
    <glyph glyph-name="partialdiff" unicode="&#x2202;" horiz-adv-x="614" 
d="M286 758q82 0 136 -37t86 -100t45 -146.5t13 -176.5q0 -149 -71 -229t-197 -80q-52 0 -98.5 17.5t-81 50.5t-54.5 80t-20 105q0 55 19 99.5t52.5 76t79.5 48.5t100 17q45 0 83.5 -14t67.5 -40q-3 51 -13 92t-29 70t-47 45t-68 16q-51 0 -87 -17.5t-68 -49.5l-64 98
q45 35 95 55t121 20zM306 95q30 0 56 10.5t45 29t29.5 45.5t10.5 60v4q0 33 -11 59.5t-29.5 46t-44.5 30t-56 10.5t-56 -10.5t-44.5 -30t-29.5 -46.5t-11 -60t10.5 -60.5t29 -47t44.5 -30t57 -10.5z" />
    <glyph glyph-name="product" unicode="&#x220f;" horiz-adv-x="651" 
d="M529 643v-807h-102v807h-204v-807h-101v807h-100v105h606v-105h-99z" />
    <glyph glyph-name="summation" unicode="&#x2211;" horiz-adv-x="600" 
d="M185 643l202 -269l-202 -268h371v-106h-508v87l215 287l-215 287v87h508v-105h-371z" />
    <glyph glyph-name="minus" unicode="&#x2212;" horiz-adv-x="547" 
d="M32 318v105h483v-105h-483z" />
    <glyph glyph-name="radical" unicode="&#x221a;" horiz-adv-x="652" 
d="M338 -77l-148 332l-109 -70l-56 89l207 129l104 -248l198 539l92 -39z" />
    <glyph glyph-name="infinity" unicode="&#x221e;" horiz-adv-x="783" 
d="M568 500q41 0 75 -15.5t58 -42t37.5 -62t13.5 -75.5q0 -41 -13.5 -76.5t-37.5 -62t-58 -42t-75 -15.5q-31 0 -57 8.5t-48 22.5t-40 31.5t-32 34.5l-18 22l-18 -22q-32 -34 -70 -58t-88 -24q-38 0 -68.5 14t-52.5 38.5t-33.5 57t-11.5 70.5q0 37 11.5 70t33.5 57.5
t52.5 39t68.5 14.5q52 0 88.5 -24t68.5 -61l17 -21l15 17q19 22 38 41t40.5 33t47 22t56.5 8zM568 405q-38 0 -66 -22.5t-56 -57.5l-17 -22l18 -23q24 -28 53.5 -52t67.5 -24q41 0 65 29.5t24 71.5q0 41 -24 70.5t-65 29.5zM199 393q-37 0 -58 -26t-21 -63t21 -63t58 -26
q29 0 55 17t49 47l18 24l-18 22q-25 32 -50 50t-54 18z" />
    <glyph glyph-name="integral" unicode="&#x222b;" horiz-adv-x="338" 
d="M250 758q32 0 53.5 -4.5t41.5 -10.5l-19 -86q-13 5 -25.5 7.5t-27.5 2.5q-29 0 -41 -16.5t-12 -54.5v-606q0 -82 -31.5 -121.5t-97.5 -39.5q-33 0 -55.5 4.5t-40.5 10.5l19 86q13 -5 24.5 -7.5t25.5 -2.5q31 0 45 17.5t14 55.5v607q0 79 30.5 118.5t96.5 39.5z" />
    <glyph glyph-name="approxequal" unicode="&#x2248;" horiz-adv-x="539" 
d="M523 496q-32 -41 -68 -64.5t-87 -23.5q-33 0 -56.5 9.5t-44.5 20.5t-41.5 20.5t-46.5 9.5q-37 0 -61.5 -13t-50.5 -43l-51 75q32 41 67 63.5t85 22.5q29 0 51 -9.5t43 -20.5t43 -20.5t52 -9.5q38 0 64 13.5t51 43.5zM523 256q-32 -41 -68 -64t-87 -23q-33 0 -56.5 9.5
t-44.5 20.5t-41.5 20.5t-46.5 9.5q-37 0 -61.5 -13t-50.5 -43l-51 74q32 41 67 64t85 23q29 0 51 -9.5t43 -21t43 -21t52 -9.5q38 0 64 14t51 44z" />
    <glyph glyph-name="notequal" unicode="&#x2260;" horiz-adv-x="547" 
d="M300 301h215v-106h-247l-39 -125l-96 23l31 102h-132v106h165l41 136h-206v106h239l38 124l97 -23l-31 -101h140v-106h-173z" />
    <glyph glyph-name="lessequal" unicode="&#x2264;" horiz-adv-x="527" 
d="M254 460l241 -107l-1 -115l-466 222l466 222l1 -115zM28 80v106h467v-106h-467z" />
    <glyph glyph-name="greaterequal" unicode="&#x2265;" horiz-adv-x="527" 
d="M33 238l-1 115l241 107l-241 107l1 115l466 -222zM32 80v106h467v-106h-467z" />
    <glyph glyph-name="lozenge" unicode="&#x25ca;" horiz-adv-x="546" 
d="M309 -55h-72l-205 401l205 402h72l204 -402zM274 106l123 240l-123 240l-124 -240z" />
    <glyph glyph-name="fi" unicode="&#xfb01;" horiz-adv-x="633" 
d="M302 782q14 0 24 -0.5t20 -2.5v-97q-7 1 -14 1.5t-18 0.5q-43 0 -69.5 -26t-26.5 -71v-74h126v-97h-126v-416h-112v416h-97v97h97v71q0 93 53 145.5t143 52.5zM496 761q29 0 50 -20.5t21 -49.5t-21 -49.5t-50 -20.5t-49.5 20.5t-20.5 49.5t20.5 49.5t49.5 20.5zM440 0
v513h112v-513h-112z" />
    <glyph glyph-name="fl" unicode="&#xfb02;" horiz-adv-x="633" 
d="M302 782q14 0 24 -0.5t20 -2.5v-97q-7 1 -14 1.5t-18 0.5q-43 0 -69.5 -26t-26.5 -71v-74h126v-97h-126v-416h-112v416h-97v97h97v71q0 93 53 145.5t143 52.5zM440 0v777h112v-777h-112z" />
    <glyph glyph-name="n.001" horiz-adv-x="613" 
d="M339 522q44 0 80.5 -14t62.5 -40t40.5 -63.5t14.5 -85.5v-319h-113v294q0 58 -30.5 91t-81.5 33q-54 0 -86.5 -35.5t-32.5 -89.5v-293h-112v513h106v-74q14 32 53.5 57.5t98.5 25.5z" />
    <glyph glyph-name="germandbls.cap" horiz-adv-x="695" 
d="M333 756q93 0 158 -33t111 -89l-103 -171q33 -12 61.5 -31t49 -46.5t32.5 -64t12 -83.5q0 -57 -20 -102.5t-56 -77.5t-86.5 -49t-110.5 -17q-55 0 -94 9l23 105q14 -5 30 -6.5t36 -1.5q67 0 111 36.5t44 102.5q0 39 -14 67.5t-39.5 48t-62.5 32.5t-83 21l116 201
q-17 20 -46 32t-74 12q-28 0 -52.5 -9t-42.5 -25t-28 -39.5t-10 -51.5v-526h-119v524q0 53 20 96t54.5 73t81.5 46.5t101 16.5z" />
    <glyph glyph-name="a.sups" horiz-adv-x="448" 
d="M221 756q169 0 169 -163v-256h-95v40q-16 -20 -48 -34t-74 -14q-63 0 -99.5 30.5t-36.5 88.5q0 33 13.5 56.5t36.5 38.5t54.5 22.5t66.5 9.5l81 5v20q0 32 -17.5 51t-50.5 19q-38 0 -56 -20t-18 -45l-99 3q0 27 11.5 53.5t34 47.5t54.5 34t73 13zM216 506
q-35 -2 -56 -14.5t-21 -38.5q0 -24 15 -35t41 -12q17 0 34 5t30.5 15.5t22 27.5t8.5 41v16z" />
    <glyph glyph-name="b.sups" horiz-adv-x="524" 
d="M163 706q15 22 48 36t76 14t79.5 -15t63 -43t41 -67.5t14.5 -88.5q0 -48 -14.5 -87.5t-41 -67.5t-63 -43t-79.5 -15q-47 0 -80.5 16t-49.5 39v-47h-95v622h101v-253zM270 670q-48 0 -78 -30t-30 -87v-21q0 -57 30 -87t78 -30q50 0 82 32.5t32 94.5t-32 95t-82 33z" />
    <glyph glyph-name="c.sups" horiz-adv-x="470" 
d="M246 756q37 0 70 -11t58.5 -31t42 -49t21.5 -66l-98 -9q-5 38 -30.5 59t-63.5 21q-47 0 -76.5 -33t-29.5 -95q0 -61 30 -94t76 -33q39 0 64 20.5t30 55.5l98 -9q-11 -72 -63.5 -112.5t-128.5 -40.5q-45 0 -83 14.5t-65.5 42t-43.5 67t-16 89.5q0 51 15.5 90.5t43.5 67
t66 42t83 14.5z" />
    <glyph glyph-name="d.sups" horiz-adv-x="524" 
d="M367 337v47q-15 -23 -49.5 -39t-81.5 -16q-43 0 -79.5 15t-62.5 43t-41 67.5t-15 87.5q0 49 15 88.5t41 67.5t62.5 43t79.5 15q44 0 77 -14t48 -36v253h100v-622h-94zM253 670q-49 0 -81 -33t-32 -95t32 -94.5t81 -32.5q48 0 78 30t30 87v21q0 57 -30 87t-78 30z" />
    <glyph glyph-name="e.sups" horiz-adv-x="477" 
d="M145 507q3 -45 29 -68.5t71 -23.5q36 0 59 15t30 41l101 -6q-6 -30 -22.5 -55t-41 -43t-56.5 -28t-68 -10q-46 0 -84.5 14.5t-66 42t-43 67t-15.5 89.5t15.5 90t43 67.5t65.5 42t83 14.5q89 0 141.5 -54t52.5 -150v-45h-294zM244 670q-41 0 -67 -23.5t-31 -63.5h191
q-3 38 -26 62.5t-67 24.5z" />
    <glyph glyph-name="f.sups" horiz-adv-x="290" 
d="M246 963q13 0 21 -0.5t16 -2.5v-87q-5 2 -11 2h-14q-33 0 -53.5 -19.5t-20.5 -53.5v-54h98v-87h-98v-324h-101v324h-76v87h76v52q0 75 44.5 119t118.5 44z" />
    <glyph glyph-name="g.sups" horiz-adv-x="521" 
d="M236 756q47 0 81.5 -16t49.5 -39v47h94v-429q0 -45 -14.5 -80.5t-41 -60.5t-64.5 -38.5t-84 -13.5q-94 0 -145 42t-63 111l101 4q5 -34 33 -53.5t70 -19.5q49 0 78.5 25.5t29.5 76.5v67q-16 -22 -48.5 -36t-76.5 -14q-43 0 -79.5 15t-62.5 43t-41 67.5t-15 87.5
q0 49 15 88.5t41 67.5t62.5 43t79.5 15zM253 670q-49 0 -81 -33t-32 -95t32 -94.5t81 -32.5q48 0 78 30t30 87v21q0 57 -30 87t-78 30z" />
    <glyph glyph-name="h.sups" horiz-adv-x="489" 
d="M163 706q11 17 39 33.5t73 16.5q71 0 115 -43t44 -120v-256h-101v233q0 44 -22.5 68.5t-60.5 24.5q-40 0 -63.5 -26.5t-23.5 -67.5v-232h-101v622h101v-253z" />
    <glyph glyph-name="i.sups" horiz-adv-x="225" 
d="M113 950q25 0 43 -18t18 -44t-18 -43.5t-43 -17.5q-26 0 -44 17.5t-18 43.5t18 44t44 18zM62 337v411h101v-411h-101z" />
    <glyph glyph-name="j.sups" horiz-adv-x="225" 
d="M112 950q26 0 44 -18t18 -44t-18 -43.5t-44 -17.5t-43.5 17.5t-17.5 43.5t17.5 44t43.5 18zM163 290q0 -76 -43.5 -119t-116.5 -43q-13 0 -21.5 0.5t-16.5 1.5v88q10 -3 26 -3q32 0 52 19.5t20 53.5v460h100v-458z" />
    <glyph glyph-name="k.sups" horiz-adv-x="453" 
d="M311 748h122l-162 -178l179 -233h-126l-123 160l-38 -41v-119h-101v622h101v-369z" />
    <glyph glyph-name="l.sups" horiz-adv-x="224" 
d="M62 337v622h101v-622h-101z" />
    <glyph glyph-name="m.sups" horiz-adv-x="746" 
d="M532 756q71 0 113 -43t42 -120v-256h-101v233q0 44 -20 68.5t-58 24.5q-40 0 -61.5 -26.5t-21.5 -67.5v-232h-101v233q0 44 -20.5 68.5t-58.5 24.5q-39 0 -60.5 -26.5t-21.5 -67.5v-232h-101v411h95v-43q11 18 39 34.5t74 16.5q92 0 132 -68q17 28 48.5 48t81.5 20z" />
    <glyph glyph-name="n.sups" horiz-adv-x="492" 
d="M275 756q71 0 115 -43t44 -120v-256h-101v233q0 44 -22.5 68.5t-60.5 24.5q-40 0 -63.5 -26.5t-23.5 -67.5v-232h-101v411h95v-43q11 18 41.5 34.5t76.5 16.5z" />
    <glyph glyph-name="o.sups" horiz-adv-x="509" 
d="M254 756q46 0 86 -15t68.5 -43t45 -67.5t16.5 -88.5t-16.5 -88.5t-45 -67t-68.5 -42.5t-86 -15q-47 0 -86.5 15t-68 42.5t-45 67t-16.5 88.5t16.5 88.5t45 67.5t68 43t86.5 15zM254 670q-50 0 -82 -34t-32 -94t32 -93.5t82 -33.5q51 0 83.5 33.5t32.5 93.5t-32.5 94
t-83.5 34z" />
    <glyph glyph-name="p.sups" horiz-adv-x="524" 
d="M287 756q43 0 79.5 -15t63 -43t41 -67.5t14.5 -88.5q0 -48 -14.5 -87.5t-41 -67.5t-63 -43t-79.5 -15t-76 14t-48 36v-246h-101v615h95v-47q16 23 49.5 39t80.5 16zM270 670q-48 0 -78 -30t-30 -87v-21q0 -57 30 -87t78 -30q50 0 82 32.5t32 94.5t-32 95t-82 33z" />
    <glyph glyph-name="q.sups" horiz-adv-x="524" 
d="M236 756q47 0 81.5 -16t49.5 -39v47h94v-615h-100v246q-15 -22 -48 -36t-77 -14q-43 0 -79.5 15t-62.5 43t-41 67.5t-15 87.5q0 49 15 88.5t41 67.5t62.5 43t79.5 15zM253 670q-49 0 -81 -33t-32 -95t32 -94.5t81 -32.5q48 0 78 30t30 87v21q0 57 -30 87t-78 30z" />
    <glyph glyph-name="r.sups" horiz-adv-x="288" 
d="M275 656q-52 0 -82 -28.5t-30 -72.5v-218h-101v411h97v-43q14 18 41 33t75 15v-97z" />
    <glyph glyph-name="s.sups" horiz-adv-x="403" 
d="M197 756q76 0 116 -38.5t46 -96.5l-100 -6q-5 55 -62 55q-28 0 -43.5 -10.5t-15.5 -30.5q0 -12 6 -18.5t17.5 -11t27.5 -7.5t36 -8q32 -8 58 -17.5t44.5 -23.5t28.5 -33.5t10 -47.5q0 -63 -43.5 -98t-121.5 -35q-76 0 -120 36.5t-51 99.5l101 6q5 -56 70 -56
q29 0 46.5 10t17.5 33q0 11 -4.5 18t-14 12t-26 9t-40.5 10q-33 7 -59.5 15.5t-44.5 22t-28 33.5t-10 51q0 59 41.5 93t117.5 34z" />
    <glyph glyph-name="t.sups" horiz-adv-x="303" 
d="M248 420q13 0 21.5 1t16.5 3v-90q-12 -2 -26 -3t-37 -1q-63 0 -102.5 32.5t-38.5 103.5l1 195h-76v87h76l1 139h101l-1 -139h101v-87h-102l-1 -180q0 -19 5.5 -31t14.5 -18.5t21 -9t25 -2.5z" />
    <glyph glyph-name="u.sups" horiz-adv-x="479" 
d="M322 337v43q-12 -18 -39.5 -34.5t-73.5 -16.5q-71 0 -111 41.5t-40 116.5v261h101v-237q0 -42 19 -65t57 -23t60 24.5t22 62.5v238h100v-411h-95z" />
    <glyph glyph-name="v.sups" horiz-adv-x="447" 
d="M184 337l-178 411h110l108 -255l107 255h110l-178 -411h-79z" />
    <glyph glyph-name="w.sups" horiz-adv-x="672" 
d="M431 337l-95 254l-95 -254h-77l-158 411h110l93 -249l93 249h69l93 -249l93 249h109l-157 -411h-78z" />
    <glyph glyph-name="x.sups" horiz-adv-x="432" 
d="M424 337h-119l-89 135l-85 -135h-121l135 208l-132 203h120l83 -130l84 130h119l-131 -202z" />
    <glyph glyph-name="y.sups" horiz-adv-x="447" 
d="M66 133l103 240l-160 375h110l105 -255l104 255h110l-262 -615h-110z" />
    <glyph glyph-name="z.sups" horiz-adv-x="365" 
d="M142 418h196v-81h-312v69l188 260h-184v82h300v-70z" />
    <glyph glyph-name="f_j" horiz-adv-x="633" 
d="M302 782q14 0 24 -0.5t20 -2.5v-97q-7 1 -14 1.5t-18 0.5q-43 0 -69.5 -26t-26.5 -71v-74h126v-97h-126v-416h-112v416h-97v97h97v71q0 93 53 145.5t143 52.5zM496 761q29 0 50 -20.5t21 -49.5t-21 -49.5t-50 -20.5t-49.5 20.5t-20.5 49.5t20.5 49.5t49.5 20.5zM553 -64
q0 -93 -51.5 -145t-139.5 -52q-14 0 -24 0.5t-21 2.5v98q13 -3 32 -3q42 0 67 25t25 71v580h112v-577z" />
    <glyph glyph-name="zero.onum" horiz-adv-x="649" 
d="M324 601q62 0 113 -21t87 -61t56 -96.5t20 -126.5q0 -71 -20 -127.5t-56 -96.5t-87 -61t-113 -21t-113 21t-87 61t-56 96.5t-20 127.5q0 70 20 126.5t56 96.5t87 61t113 21zM325 496q-72 0 -113 -53t-41 -147q0 -95 41 -147.5t113 -52.5q71 0 112 52.5t41 147.5
q0 94 -41 147t-112 53z" />
    <glyph glyph-name="one.onum" horiz-adv-x="381" 
d="M178 0v443l-121 -94l-50 94l202 147h87v-590h-118z" />
    <glyph glyph-name="two.onum" horiz-adv-x="539" 
d="M276 600q55 0 96.5 -14.5t69.5 -41t41.5 -63.5t13.5 -83q0 -36 -11 -66.5t-29.5 -57t-43.5 -49.5t-53 -45l-98 -74h242v-106h-450v91l213 157q23 17 43.5 32.5t35.5 32.5t23.5 37t8.5 46q0 48 -25 73t-74 25q-52 0 -80 -32t-29 -91l-119 6q2 106 61.5 164.5t163.5 58.5z
" />
    <glyph glyph-name="three.onum" horiz-adv-x="562" 
d="M278 600q106 0 164.5 -57t58.5 -154q0 -64 -29 -102.5t-70 -57.5q48 -14 81.5 -58t33.5 -113q0 -53 -17 -95t-48.5 -71t-75 -44.5t-96.5 -15.5q-115 0 -175.5 60t-65.5 163l119 7q5 -59 34.5 -91.5t86.5 -32.5t87.5 32t30.5 90q0 59 -35 87t-91 28h-75v106h73
q48 0 80 28.5t32 79.5q0 52 -27.5 78.5t-75.5 26.5q-50 0 -78.5 -30t-31.5 -86l-118 6q3 101 61.5 158.5t166.5 57.5z" />
    <glyph glyph-name="four.onum" horiz-adv-x="599" 
d="M575 105v-106h-117v-157h-117v157h-314v98l331 493h100v-485h117zM340 105v270l-182 -270h182z" />
    <glyph glyph-name="five.onum" horiz-adv-x="564" 
d="M294 308q49 0 90.5 -15.5t71.5 -45t47 -73t17 -99.5q0 -54 -16.5 -99t-48 -77t-76 -49.5t-101.5 -17.5q-110 0 -171 58t-66 157l119 7q5 -54 34 -85t85 -31q60 0 91 37.5t31 96.5q0 60 -32 95t-87 35q-32 0 -57 -9.5t-48 -26.5h-110v424h424v-105h-306v-204q22 13 49 20
t60 7z" />
    <glyph glyph-name="six.onum" horiz-adv-x="599" 
d="M304 485q54 -1 100.5 -19t80.5 -50.5t53 -78.5t19 -101q0 -56 -19.5 -101.5t-54 -77.5t-81 -49.5t-101.5 -17.5t-102 17.5t-81.5 49.5t-54 77.5t-19.5 101.5q0 48 14 85.5t39 72.5l258 354h142zM301 96q60 0 98 38.5t38 105.5t-38 104t-98 37q-35 0 -62.5 -12t-45.5 -36
q-28 -37 -28 -93q0 -67 38 -105.5t98 -38.5z" />
    <glyph glyph-name="seven.onum" horiz-adv-x="540" 
d="M188 -158h-131l325 643h-361v105h492v-96z" />
    <glyph glyph-name="eight.onum" horiz-adv-x="606" 
d="M302 758q49 0 92 -14t74 -40t49 -64.5t18 -86.5q0 -56 -25 -95t-67 -61q50 -24 80.5 -70t30.5 -112q0 -53 -19 -94.5t-53 -70.5t-79.5 -44.5t-99.5 -15.5t-99.5 15.5t-79.5 44.5t-53 70.5t-19 94.5q0 65 30 111t80 70q-42 22 -67 61.5t-25 95.5q0 48 17.5 86.5t48.5 64.5
t73.5 40t92.5 14zM303 652q-48 0 -81 -27t-33 -78q0 -49 33 -76t81 -27q49 0 81.5 27t32.5 76q0 51 -32.5 78t-81.5 27zM302 340q-28 0 -52 -8t-42 -23.5t-28 -38.5t-10 -52t10 -51.5t28 -38.5t42 -24t52 -8q57 0 95 32t38 90q0 59 -38 90.5t-95 31.5z" />
    <glyph glyph-name="nine.onum" horiz-adv-x="599" 
d="M298 600q55 0 102 -17.5t81.5 -49.5t54 -77.5t19.5 -101.5q0 -48 -14 -85.5t-39 -72.5l-258 -354h-142l193 263q-54 1 -100.5 19t-80.5 50.5t-53 78t-19 101.5t19.5 101.5t54 77.5t81 49.5t101.5 17.5zM298 209q35 0 62.5 12t45.5 36q28 37 28 93q0 67 -38 105.5
t-98 38.5t-98 -38.5t-38 -105.5t38 -104t98 -37z" />
    <glyph glyph-name="zero.slash" horiz-adv-x="648" 
d="M324 758q61 0 112 -25t87 -74t56 -120.5t20 -164.5t-20 -164.5t-56 -120t-87 -74t-112 -25.5q-62 0 -113 25.5t-87 74t-56 120t-20 164.5t20 164.5t56 120.5t87 74t113 25zM324 652q-78 0 -116.5 -70.5t-38.5 -207.5q0 -107 24 -174l215 421q-32 31 -84 31zM324 96
q77 0 115.5 70.5t38.5 207.5q0 103 -23 169l-214 -418q34 -29 83 -29z" />
    <glyph glyph-name="zero.subs" horiz-adv-x="371" 
d="M186 337q69 0 112.5 -54t43.5 -157t-43.5 -157.5t-112.5 -54.5t-113 54.5t-44 157.5t44 157t113 54zM185 260q-68 0 -68 -134t68 -134t68 134t-68 134z" />
    <glyph glyph-name="one.subs" horiz-adv-x="228" 
d="M100 -80v297l-60 -45l-37 70l129 89h55v-411h-87z" />
    <glyph glyph-name="two.subs" horiz-adv-x="316" 
d="M156 337q68 0 100 -36t32 -92q0 -45 -19.5 -79t-49.5 -67l-62 -66h134v-77h-264v60l129 137q22 23 33.5 43.5t11.5 49.5q0 23 -11 36.5t-32 13.5q-23 0 -35.5 -14.5t-12.5 -41.5l-85 5q1 60 36 94t95 34z" />
    <glyph glyph-name="three.subs" horiz-adv-x="326" 
d="M160 337q62 0 95.5 -31.5t33.5 -87.5q0 -33 -15 -53.5t-37 -31.5q25 -9 42 -32.5t17 -59.5q0 -60 -38 -93.5t-98 -33.5q-66 0 -100 34t-36 91l87 6q2 -25 14 -39t35 -14t36 13t13 38q0 26 -15 38t-39 12h-42v74h41q20 0 35 12t15 35t-12 34.5t-32 11.5q-43 0 -45 -50
l-85 5q1 57 34 89.5t96 32.5z" />
    <glyph glyph-name="four.subs" horiz-adv-x="348" 
d="M330 76v-78h-55v-78h-87v78h-172v68l176 265h83v-255h55zM189 76v137l-96 -137h96z" />
    <glyph glyph-name="five.subs" horiz-adv-x="322" 
d="M171 182q54 0 90.5 -33t36.5 -98q0 -63 -37 -100t-102 -37q-63 0 -97.5 33t-36.5 87l86 5q2 -22 14 -34.5t35 -12.5q25 0 38 15.5t13 41.5t-14 40.5t-37 14.5q-14 0 -24 -4t-20 -12h-77v243h242v-77h-155v-81q18 9 45 9z" />
    <glyph glyph-name="six.subs" horiz-adv-x="347" 
d="M195 189q55 -6 90 -43t35 -94q0 -32 -11 -57.5t-30.5 -43.5t-46 -27.5t-57.5 -9.5q-32 0 -58.5 9.5t-46.5 27.5t-31 43.5t-11 57.5q0 26 8 47.5t22 41.5l134 190h105zM174 -8q26 0 42 17t16 46q0 30 -16 45t-42 15q-32 0 -46 -20q-5 -8 -8.5 -17t-3.5 -23q0 -29 16 -46
t42 -17z" />
    <glyph glyph-name="seven.subs" horiz-adv-x="315" 
d="M131 -80h-96l158 334h-176v77h276v-67z" />
    <glyph glyph-name="eight.subs" horiz-adv-x="349" 
d="M174 337q57 0 95.5 -31t38.5 -86q0 -26 -10.5 -46.5t-28.5 -34.5q50 -32 50 -97q0 -30 -11 -54t-30.5 -40.5t-45.5 -25t-57 -8.5t-57.5 8.5t-46 25t-30.5 40.5t-11 54q0 33 13 56.5t36 39.5q-17 15 -28 34.5t-11 47.5q0 55 38.5 86t95.5 31zM175 260q-22 0 -37.5 -12.5
t-15.5 -35.5t15.5 -34.5t37.5 -11.5t36.5 11.5t14.5 34.5t-14.5 35.5t-36.5 12.5zM175 95q-24 0 -41 -13t-17 -39q0 -25 17 -38t41 -13q25 0 41 13t16 38q0 26 -16.5 39t-40.5 13z" />
    <glyph glyph-name="nine.subs" horiz-adv-x="347" 
d="M173 337q31 0 58 -10t47 -28t31 -43.5t11 -56.5q0 -26 -8.5 -47.5t-22.5 -41.5l-133 -190h-105l102 142q-55 6 -90 43t-35 94q0 31 11 56.5t30.5 43.5t46 28t57.5 10zM174 136q30 0 46 20q12 17 12 40q0 29 -16 46.5t-42 17.5t-42.5 -17t-16.5 -46t16.5 -45t42.5 -16z
" />
    <glyph glyph-name="zero.sups" horiz-adv-x="371" 
d="M186 819q69 0 112.5 -54t43.5 -157t-43.5 -157.5t-112.5 -54.5t-113 54.5t-44 157.5t44 157t113 54zM185 742q-68 0 -68 -134t68 -134t68 134t-68 134z" />
    <glyph glyph-name="one.sups" horiz-adv-x="228" 
d="M100 402v297l-60 -45l-37 70l129 89h55v-411h-87z" />
    <glyph glyph-name="two.sups" horiz-adv-x="316" 
d="M156 819q68 0 100 -36t32 -92q0 -45 -19.5 -79t-49.5 -67l-62 -66h134v-77h-264v60l129 137q22 23 33.5 43.5t11.5 49.5q0 23 -11 36.5t-32 13.5q-23 0 -35.5 -14.5t-12.5 -41.5l-85 5q1 60 36 94t95 34z" />
    <glyph glyph-name="three.sups" horiz-adv-x="326" 
d="M160 819q62 0 95.5 -31.5t33.5 -87.5q0 -33 -15 -53.5t-37 -31.5q25 -9 42 -32.5t17 -59.5q0 -60 -38 -93.5t-98 -33.5q-66 0 -100 34t-36 91l87 6q2 -25 14 -39t35 -14t36 13t13 38q0 26 -15 38t-39 12h-42v74h41q20 0 35 12t15 35t-12 34.5t-32 11.5q-43 0 -45 -50
l-85 5q1 57 34 89.5t96 32.5z" />
    <glyph glyph-name="four.sups" horiz-adv-x="348" 
d="M330 558v-78h-55v-78h-87v78h-172v68l176 265h83v-255h55zM189 558v137l-96 -137h96z" />
    <glyph glyph-name="five.sups" horiz-adv-x="322" 
d="M171 664q54 0 90.5 -33t36.5 -98q0 -63 -37 -100t-102 -37q-63 0 -97.5 33t-36.5 87l86 5q2 -22 14 -34.5t35 -12.5q25 0 38 15.5t13 41.5t-14 40.5t-37 14.5q-14 0 -24 -4t-20 -12h-77v243h242v-77h-155v-81q18 9 45 9z" />
    <glyph glyph-name="six.sups" horiz-adv-x="347" 
d="M195 671q55 -6 90 -43t35 -94q0 -32 -11 -57.5t-30.5 -43.5t-46 -27.5t-57.5 -9.5q-32 0 -58.5 9.5t-46.5 27.5t-31 43.5t-11 57.5q0 26 8 47.5t22 41.5l134 190h105zM174 474q26 0 42 17t16 46q0 30 -16 45t-42 15q-32 0 -46 -20q-5 -8 -8.5 -17t-3.5 -23q0 -29 16 -46
t42 -17z" />
    <glyph glyph-name="seven.sups" horiz-adv-x="315" 
d="M131 402h-96l158 334h-176v77h276v-67z" />
    <glyph glyph-name="eight.sups" horiz-adv-x="349" 
d="M174 819q57 0 95.5 -31t38.5 -86q0 -26 -10.5 -46.5t-28.5 -34.5q50 -32 50 -97q0 -30 -11 -54t-30.5 -40.5t-45.5 -25t-57 -8.5t-57.5 8.5t-46 25t-30.5 40.5t-11 54q0 33 13 56.5t36 39.5q-17 15 -28 34.5t-11 47.5q0 55 38.5 86t95.5 31zM175 742q-22 0 -37.5 -12.5
t-15.5 -35.5t15.5 -34.5t37.5 -11.5t36.5 11.5t14.5 34.5t-14.5 35.5t-36.5 12.5zM175 577q-24 0 -41 -13t-17 -39q0 -25 17 -38t41 -13q25 0 41 13t16 38q0 26 -16.5 39t-40.5 13z" />
    <glyph glyph-name="nine.sups" horiz-adv-x="347" 
d="M173 819q31 0 58 -10t47 -28t31 -43.5t11 -56.5q0 -26 -8.5 -47.5t-22.5 -41.5l-133 -190h-105l102 142q-55 6 -90 43t-35 94q0 31 11 56.5t30.5 43.5t46 28t57.5 10zM174 618q30 0 46 20q12 17 12 40q0 29 -16 46.5t-42 17.5t-42.5 -17t-16.5 -46t16.5 -45t42.5 -16z
" />
    <glyph glyph-name="zero.tnum" horiz-adv-x="650" 
d="M325 758q61 0 112 -25t87 -74t56 -120.5t20 -164.5t-20 -164.5t-56 -120t-87 -74t-112 -25.5q-62 0 -113 25.5t-87 74t-56 120t-20 164.5t20 164.5t56 120.5t87 74t113 25zM325 652q-78 0 -116.5 -70.5t-38.5 -207.5t38.5 -207.5t116.5 -70.5q77 0 115.5 70.5t38.5 207.5
t-38.5 207.5t-115.5 70.5z" />
    <glyph glyph-name="one.tnum" horiz-adv-x="650" 
d="M563 106v-106h-422v106h159v485l-123 -86l-54 90l209 153h87v-642h144z" />
    <glyph glyph-name="two.tnum" horiz-adv-x="650" 
d="M328 758q106 0 163.5 -55.5t57.5 -155.5q0 -47 -11 -86.5t-30.5 -75t-45 -67.5t-54.5 -63l-139 -149h287v-106h-451v98l215 230q30 31 50.5 56.5t34 49.5t19.5 49.5t6 58.5q0 51 -25.5 80.5t-73.5 29.5q-56 0 -82 -34t-27 -96l-119 7q2 108 60.5 168.5t164.5 60.5z" />
    <glyph glyph-name="three.tnum" horiz-adv-x="650" 
d="M324 758q106 0 164.5 -57t58.5 -154q0 -64 -29 -102.5t-70 -57.5q48 -14 81.5 -58t33.5 -113q0 -53 -17 -95t-48.5 -71t-75 -44.5t-96.5 -15.5q-115 0 -175.5 60t-65.5 163l119 7q5 -59 34.5 -91.5t86.5 -32.5t87.5 32t30.5 90q0 59 -35 87t-91 28h-75v106h73
q48 0 80 28.5t32 79.5q0 52 -27.5 78.5t-75.5 26.5q-50 0 -78.5 -30t-31.5 -86l-118 6q3 101 61.5 158.5t166.5 57.5z" />
    <glyph glyph-name="four.tnum" horiz-adv-x="650" 
d="M595 263v-106h-117v-157h-117v157h-314v98l331 493h100v-485h117zM360 263v270l-182 -270h182z" />
    <glyph glyph-name="five.tnum" horiz-adv-x="650" 
d="M336 466q49 0 90.5 -15.5t71.5 -45t47 -73t17 -99.5q0 -54 -16.5 -99t-48 -77t-76 -49.5t-101.5 -17.5q-110 0 -171 58t-66 157l119 7q5 -54 34 -85t85 -31q60 0 91 37.5t31 96.5q0 60 -32 95t-87 35q-32 0 -57 -9.5t-48 -26.5h-110v424h424v-105h-306v-204q22 13 49 20
t60 7z" />
    <glyph glyph-name="six.tnum" horiz-adv-x="650" 
d="M326 485q54 -1 100.5 -19t80.5 -50.5t53 -78.5t19 -101q0 -56 -19.5 -101.5t-54 -77.5t-81 -49.5t-101.5 -17.5t-102 17.5t-81.5 49.5t-54 77.5t-19.5 101.5q0 48 14 85.5t39 72.5l258 354h142zM323 96q60 0 98 38.5t38 105.5t-38 104t-98 37q-35 0 -62.5 -12t-45.5 -36
q-28 -37 -28 -93q0 -67 38 -105.5t98 -38.5z" />
    <glyph glyph-name="seven.tnum" horiz-adv-x="650" 
d="M237 0h-131l325 643h-361v105h492v-96z" />
    <glyph glyph-name="eight.tnum" horiz-adv-x="650" 
d="M324 758q49 0 92 -14t74 -40t49 -64.5t18 -86.5q0 -56 -25 -95t-67 -61q50 -24 80.5 -70t30.5 -112q0 -53 -19 -94.5t-53 -70.5t-79.5 -44.5t-99.5 -15.5t-99.5 15.5t-79.5 44.5t-53 70.5t-19 94.5q0 65 30 111t80 70q-42 22 -67 61.5t-25 95.5q0 48 17.5 86.5t48.5 64.5
t73.5 40t92.5 14zM325 652q-48 0 -81 -27t-33 -78q0 -49 33 -76t81 -27q49 0 81.5 27t32.5 76q0 51 -32.5 78t-81.5 27zM324 340q-28 0 -52 -8t-42 -23.5t-28 -38.5t-10 -52t10 -51.5t28 -38.5t42 -24t52 -8q57 0 95 32t38 90q0 59 -38 90.5t-95 31.5z" />
    <glyph glyph-name="nine.tnum" horiz-adv-x="650" 
d="M327 758q55 0 102 -17.5t81.5 -49.5t54 -77.5t19.5 -101.5q0 -48 -14 -85.5t-39 -72.5l-258 -354h-142l193 263q-54 1 -100.5 19t-80.5 50.5t-53 78t-19 101.5t19.5 101.5t54 77.5t81 49.5t101.5 17.5zM327 367q35 0 62.5 12t45.5 36q28 37 28 93q0 67 -38 105.5
t-98 38.5t-98 -38.5t-38 -105.5t38 -104t98 -37z" />
    <glyph glyph-name="zero.dnom" horiz-adv-x="371" 
d="M186 417q69 0 112.5 -54t43.5 -157t-43.5 -157.5t-112.5 -54.5t-113 54.5t-44 157.5t44 157t113 54zM185 340q-68 0 -68 -134t68 -134t68 134t-68 134z" />
    <glyph glyph-name="one.dnom" horiz-adv-x="228" 
d="M100 0v297l-60 -45l-37 70l129 89h55v-411h-87z" />
    <glyph glyph-name="two.dnom" horiz-adv-x="316" 
d="M156 417q68 0 100 -36t32 -92q0 -45 -19.5 -79t-49.5 -67l-62 -66h134v-77h-264v60l129 137q22 23 33.5 43.5t11.5 49.5q0 23 -11 36.5t-32 13.5q-23 0 -35.5 -14.5t-12.5 -41.5l-85 5q1 60 36 94t95 34z" />
    <glyph glyph-name="three.dnom" horiz-adv-x="326" 
d="M160 417q62 0 95.5 -31.5t33.5 -87.5q0 -33 -15 -53.5t-37 -31.5q25 -9 42 -32.5t17 -59.5q0 -60 -38 -93.5t-98 -33.5q-66 0 -100 34t-36 91l87 6q2 -25 14 -39t35 -14t36 13t13 38q0 26 -15 38t-39 12h-42v74h41q20 0 35 12t15 35t-12 34.5t-32 11.5q-43 0 -45 -50
l-85 5q1 57 34 89.5t96 32.5z" />
    <glyph glyph-name="four.dnom" horiz-adv-x="348" 
d="M330 156v-78h-55v-78h-87v78h-172v68l176 265h83v-255h55zM189 156v137l-96 -137h96z" />
    <glyph glyph-name="five.dnom" horiz-adv-x="322" 
d="M171 262q54 0 90.5 -33t36.5 -98q0 -63 -37 -100t-102 -37q-63 0 -97.5 33t-36.5 87l86 5q2 -22 14 -34.5t35 -12.5q25 0 38 15.5t13 41.5t-14 40.5t-37 14.5q-14 0 -24 -4t-20 -12h-77v243h242v-77h-155v-81q18 9 45 9z" />
    <glyph glyph-name="six.dnom" horiz-adv-x="347" 
d="M195 269q55 -6 90 -43t35 -94q0 -32 -11 -57.5t-30.5 -43.5t-46 -27.5t-57.5 -9.5q-32 0 -58.5 9.5t-46.5 27.5t-31 43.5t-11 57.5q0 26 8 47.5t22 41.5l134 190h105zM174 72q26 0 42 17t16 46q0 30 -16 45t-42 15q-32 0 -46 -20q-5 -8 -8.5 -17t-3.5 -23q0 -29 16 -46
t42 -17z" />
    <glyph glyph-name="seven.dnom" horiz-adv-x="315" 
d="M131 0h-96l158 334h-176v77h276v-67z" />
    <glyph glyph-name="eight.dnom" horiz-adv-x="349" 
d="M174 417q57 0 95.5 -31t38.5 -86q0 -26 -10.5 -46.5t-28.5 -34.5q50 -32 50 -97q0 -30 -11 -54t-30.5 -40.5t-45.5 -25t-57 -8.5t-57.5 8.5t-46 25t-30.5 40.5t-11 54q0 33 13 56.5t36 39.5q-17 15 -28 34.5t-11 47.5q0 55 38.5 86t95.5 31zM175 340q-22 0 -37.5 -12.5
t-15.5 -35.5t15.5 -34.5t37.5 -11.5t36.5 11.5t14.5 34.5t-14.5 35.5t-36.5 12.5zM175 175q-24 0 -41 -13t-17 -39q0 -25 17 -38t41 -13q25 0 41 13t16 38q0 26 -16.5 39t-40.5 13z" />
    <glyph glyph-name="nine.dnom" horiz-adv-x="347" 
d="M173 417q31 0 58 -10t47 -28t31 -43.5t11 -56.5q0 -26 -8.5 -47.5t-22.5 -41.5l-133 -190h-105l102 142q-55 6 -90 43t-35 94q0 31 11 56.5t30.5 43.5t46 28t57.5 10zM174 216q30 0 46 20q12 17 12 40q0 29 -16 46.5t-42 17.5t-42.5 -17t-16.5 -46t16.5 -45t42.5 -16z
" />
    <glyph glyph-name="zero.numr" horiz-adv-x="371" 
d="M186 738q69 0 112.5 -54t43.5 -157t-43.5 -157.5t-112.5 -54.5t-113 54.5t-44 157.5t44 157t113 54zM185 661q-68 0 -68 -134t68 -134t68 134t-68 134z" />
    <glyph glyph-name="one.numr" horiz-adv-x="228" 
d="M100 322v297l-60 -45l-37 70l129 89h55v-411h-87z" />
    <glyph glyph-name="two.numr" horiz-adv-x="316" 
d="M156 738q68 0 100 -36t32 -92q0 -45 -19.5 -79t-49.5 -67l-62 -66h134v-77h-264v60l129 137q22 23 33.5 43.5t11.5 49.5q0 23 -11 36.5t-32 13.5q-23 0 -35.5 -14.5t-12.5 -41.5l-85 5q1 60 36 94t95 34z" />
    <glyph glyph-name="three.numr" horiz-adv-x="326" 
d="M160 738q62 0 95.5 -31.5t33.5 -87.5q0 -33 -15 -53.5t-37 -31.5q25 -9 42 -32.5t17 -59.5q0 -60 -38 -93.5t-98 -33.5q-66 0 -100 34t-36 91l87 6q2 -25 14 -39t35 -14t36 13t13 38q0 26 -15 38t-39 12h-42v74h41q20 0 35 12t15 35t-12 34.5t-32 11.5q-43 0 -45 -50
l-85 5q1 57 34 89.5t96 32.5z" />
    <glyph glyph-name="four.numr" horiz-adv-x="348" 
d="M330 477v-78h-55v-78h-87v78h-172v68l176 265h83v-255h55zM189 477v137l-96 -137h96z" />
    <glyph glyph-name="five.numr" horiz-adv-x="322" 
d="M171 584q54 0 90.5 -33t36.5 -98q0 -63 -37 -100t-102 -37q-63 0 -97.5 33t-36.5 87l86 5q2 -22 14 -34.5t35 -12.5q25 0 38 15.5t13 41.5t-14 40.5t-37 14.5q-14 0 -24 -4t-20 -12h-77v243h242v-77h-155v-81q18 9 45 9z" />
    <glyph glyph-name="six.numr" horiz-adv-x="347" 
d="M195 590q55 -6 90 -43t35 -94q0 -32 -11 -57.5t-30.5 -43.5t-46 -27.5t-57.5 -9.5q-32 0 -58.5 9.5t-46.5 27.5t-31 43.5t-11 57.5q0 26 8 47.5t22 41.5l134 190h105zM174 393q26 0 42 17t16 46q0 30 -16 45t-42 15q-32 0 -46 -20q-5 -8 -8.5 -17t-3.5 -23q0 -29 16 -46
t42 -17z" />
    <glyph glyph-name="seven.numr" horiz-adv-x="315" 
d="M131 322h-96l158 334h-176v77h276v-67z" />
    <glyph glyph-name="eight.numr" horiz-adv-x="349" 
d="M174 738q57 0 95.5 -31t38.5 -86q0 -26 -10.5 -46.5t-28.5 -34.5q50 -32 50 -97q0 -30 -11 -54t-30.5 -40.5t-45.5 -25t-57 -8.5t-57.5 8.5t-46 25t-30.5 40.5t-11 54q0 33 13 56.5t36 39.5q-17 15 -28 34.5t-11 47.5q0 55 38.5 86t95.5 31zM175 661q-22 0 -37.5 -12.5
t-15.5 -35.5t15.5 -34.5t37.5 -11.5t36.5 11.5t14.5 34.5t-14.5 35.5t-36.5 12.5zM175 496q-24 0 -41 -13t-17 -39q0 -25 17 -38t41 -13q25 0 41 13t16 38q0 26 -16.5 39t-40.5 13z" />
    <glyph glyph-name="nine.numr" horiz-adv-x="347" 
d="M173 738q31 0 58 -10t47 -28t31 -43.5t11 -56.5q0 -26 -8.5 -47.5t-22.5 -41.5l-133 -190h-105l102 142q-55 6 -90 43t-35 94q0 31 11 56.5t30.5 43.5t46 28t57.5 10zM174 537q30 0 46 20q12 17 12 40q0 29 -16 46.5t-42 17.5t-42.5 -17t-16.5 -46t16.5 -45t42.5 -16z
" />
    <glyph glyph-name="periodcentered.cap" horiz-adv-x="240" 
d="M113 497q30 0 51.5 -21t21.5 -52q0 -29 -21.5 -50t-51.5 -21q-29 0 -50 21t-21 50q0 31 21 52t50 21z" />
    <glyph glyph-name="exclamdown.cap" horiz-adv-x="299" 
d="M151 614q-30 0 -51.5 21t-21.5 52q0 29 21.5 50t51.5 21q29 0 50 -21t21 -50q0 -31 -21 -52t-50 -21zM210 534l6 -534h-131l6 534h119z" />
    <glyph glyph-name="questiondown.cap" horiz-adv-x="516" 
d="M261 614q-30 0 -51.5 21t-21.5 52q0 29 21.5 50t51.5 21q29 0 50 -21t21 -50q0 -31 -21 -52t-50 -21zM257 -11q-56 0 -100.5 16t-75 45t-47 69.5t-16.5 89.5q0 32 8 57t22 45t33 37t40 33q39 30 59 57t20 67v29h119v-34q0 -50 -26 -86.5t-70 -72.5q-37 -29 -60 -57.5
t-23 -72.5q0 -52 30.5 -84.5t86.5 -32.5t87 31t36 85l119 -8q-3 -49 -21 -88.5t-49.5 -67t-75 -42.5t-96.5 -15z" />
    <glyph glyph-name="braceleft.cap" 
d="M246 676q-48 0 -63 -34t-1 -113q5 -29 7 -56t-3.5 -48t-19 -34.5t-40.5 -17.5q27 -5 40.5 -19t19 -35t3.5 -47.5t-7 -55.5q-14 -80 1 -113.5t63 -33.5h6v-94h-6q-48 0 -86 14.5t-62 43.5t-31.5 72t4.5 101q7 30 10.5 52.5t0 37.5t-16.5 22.5t-38 7.5h-8v93h8q25 0 38 7.5
t16.5 22.5t0 37.5t-10.5 52.5q-12 58 -4.5 101t31.5 72t62 43.5t86 14.5h6v-94h-6z" />
    <glyph glyph-name="braceright.cap" 
d="M28 770q48 0 86 -14.5t62 -43.5t31.5 -72t-4.5 -101q-7 -30 -10.5 -52.5t0 -37.5t16 -22.5t38.5 -7.5h8v-93h-8q-26 0 -38.5 -7.5t-16 -22.5t0 -37.5t10.5 -52.5q12 -58 4.5 -101t-31.5 -72t-62 -43.5t-86 -14.5h-6v94h6q48 0 63 33.5t1 113.5q-5 29 -7 55.5t3.5 47.5
t19 35t40.5 19q-27 4 -40.5 17.5t-19 34.5t-3.5 48t7 56q14 79 -1 113t-63 34h-6v94h6z" />
    <glyph glyph-name="bracketleft.cap" horiz-adv-x="283" 
d="M168 676v-607h94v-94h-206v795h206v-94h-94z" />
    <glyph glyph-name="bracketright.cap" horiz-adv-x="292" 
d="M22 -25v94h94v607h-94v94h206v-795h-206z" />
    <glyph glyph-name="parenleft.cap" 
d="M256 739q-44 -72 -74.5 -166.5t-30.5 -210.5t30.5 -210t74.5 -166l-97 -35q-25 37 -46.5 82t-38 97t-26 110t-9.5 122t9.5 122t26 110t38 97t46.5 82z" />
    <glyph glyph-name="parenright.cap" horiz-adv-x="271" 
d="M116 773q25 -37 46.5 -82t38 -97t26 -110t9.5 -122t-9.5 -122t-26 -110t-38 -97t-46.5 -82l-97 35q44 72 74.5 166t30.5 210t-30.5 210.5t-74.5 166.5z" />
    <glyph glyph-name="emdash.cap" horiz-adv-x="796" 
d="M45 324v105h706v-105h-706z" />
    <glyph glyph-name="endash.cap" horiz-adv-x="564" 
d="M45 324v105h474v-105h-474z" />
    <glyph glyph-name="hyphen.cap" horiz-adv-x="404" 
d="M45 324v105h314v-105h-314z" />
    <glyph glyph-name="guillemotleft.cap" horiz-adv-x="553" 
d="M141 385l135 -171l-89 -56l-172 227l172 226l89 -56zM399 385l135 -171l-89 -56l-172 227l172 226l89 -56z" />
    <glyph glyph-name="guillemotright.cap" horiz-adv-x="553" 
d="M108 158l-89 56l135 171l-135 170l89 56l172 -226zM365 158l-89 56l135 171l-135 170l89 56l172 -226z" />
    <glyph glyph-name="guilsinglleft.cap" horiz-adv-x="320" 
d="M151 385l151 -153l-81 -71l-206 224l206 224l81 -71z" />
    <glyph glyph-name="guilsinglright.cap" horiz-adv-x="320" 
d="M99 161l-80 71l151 153l-151 153l80 71l207 -224z" />
    <glyph glyph-name="emdash_guilsinglright" horiz-adv-x="867" 
d="M598 11l-79 71l125 131h-599v93h598l-124 129l79 71l234 -247z" />
    <glyph glyph-name="endash_guilsinglright" horiz-adv-x="602" 
d="M333 11l-79 71l126 131h-335v93h333l-124 129l79 71l234 -247z" />
    <glyph glyph-name="guilsinglleft_emdash" horiz-adv-x="867" 
d="M224 306h598v-93h-600l126 -131l-79 -71l-234 248l234 247l79 -71z" />
    <glyph glyph-name="guilsinglleft_endash" horiz-adv-x="602" 
d="M224 306h333v-93h-336l127 -131l-79 -71l-234 248l234 247l79 -71z" />
    <glyph glyph-name="at.cap" horiz-adv-x="812" 
d="M406 736q79 0 146 -27.5t115.5 -76t76 -115t27.5 -144.5q0 -102 -41 -153.5t-113 -51.5q-75 0 -97 55q-22 -27 -54.5 -42.5t-80.5 -15.5q-42 0 -77 14.5t-59.5 42t-38.5 66t-14 86.5t14 87t38.5 66.5t59.5 42t77 14.5q48 0 80.5 -15.5t48.5 -39.5v42h82v-282
q0 -49 42 -49q28 0 46.5 33.5t18.5 99.5q0 64 -22.5 118.5t-62.5 94.5t-94 62.5t-118 22.5q-65 0 -119 -22.5t-94 -62.5t-62 -94.5t-22 -118.5q0 -67 23.5 -121.5t63 -93.5t92.5 -60t113 -21t102.5 12t80.5 35l18 -63q-41 -25 -87.5 -37.5t-113.5 -12.5q-76 0 -141.5 26.5
t-114 74.5t-76.5 114.5t-28 146.5q0 78 27 144.5t75.5 115t115.5 76t147 27.5zM510 385q0 60 -30.5 91t-80.5 31q-51 0 -83 -34t-32 -99q0 -64 32 -98.5t83 -34.5q50 0 80.5 31.5t30.5 91.5v21z" />
    <glyph glyph-name="acute.case" horiz-adv-x="324" 
d="M14 797l139 147h155l-190 -147h-104z" />
    <glyph glyph-name="breve.case" horiz-adv-x="370" 
d="M354 950q0 -74 -47.5 -110.5t-122.5 -36.5q-37 0 -68 9t-53.5 27.5t-35 46t-12.5 64.5h92q0 -32 21 -50.5t56 -18.5t56.5 18.5t21.5 50.5h92z" />
    <glyph glyph-name="caron.case" horiz-adv-x="372" 
d="M132 797l-118 150h95l77 -83l76 83h96l-118 -150h-108z" />
    <glyph glyph-name="circumflex.case" horiz-adv-x="372" 
d="M262 797l-76 84l-77 -84h-95l118 150h108l118 -150h-96z" />
    <glyph glyph-name="dieresis.case" horiz-adv-x="328" 
d="M80 938q26 0 45 -18.5t19 -44.5q0 -27 -19 -45.5t-45 -18.5q-27 0 -45.5 18.5t-18.5 45.5q0 26 18.5 44.5t45.5 18.5zM248 938q27 0 45.5 -18.5t18.5 -44.5q0 -27 -18.5 -45.5t-45.5 -18.5q-26 0 -45 18.5t-19 45.5q0 26 19 44.5t45 18.5z" />
    <glyph glyph-name="dotaccent.case" horiz-adv-x="173" 
d="M86 948q29 0 50 -21t21 -50q0 -30 -21 -50.5t-50 -20.5t-50 20.5t-21 50.5q0 29 21 50t50 21z" />
    <glyph glyph-name="grave.case" horiz-adv-x="324" 
d="M205 797l-190 147h155l139 -147h-104z" />
    <glyph glyph-name="hungarumlaut.case" horiz-adv-x="378" 
d="M13 800l61 157h106l-79 -157h-88zM197 800l61 157h106l-79 -157h-88z" />
    <glyph glyph-name="macron.case" horiz-adv-x="304" 
d="M12 828v86h279v-86h-279z" />
    <glyph glyph-name="ring.case" horiz-adv-x="248" 
d="M125 999q22 0 41.5 -7.5t34 -21t23 -32.5t8.5 -41q0 -45 -31 -73.5t-76 -28.5q-46 0 -77.5 28.5t-31.5 73.5t31.5 73.5t77.5 28.5zM125 942q-21 0 -34 -12.5t-13 -32.5t13 -32.5t34 -12.5q20 0 32.5 12.5t12.5 32.5t-12.5 32.5t-32.5 12.5z" />
    <glyph glyph-name="tilde.case" horiz-adv-x="371" 
d="M112 948q24 0 41.5 -9t32.5 -20t29.5 -20t31.5 -9q23 0 34 14.5t12 36.5h64q2 -27 -4 -51t-19 -43t-32 -30t-43 -11t-41.5 9t-32.5 19.5t-29.5 19.5t-31.5 9q-23 0 -34 -14t-11 -36h-65q-2 27 4 51t18.5 43t32 30t43.5 11z" />
    <glyph glyph-name="anneau" horiz-adv-x="588" 
d="M295 760q56 0 104.5 -19.5t84 -53.5t55.5 -80.5t20 -100.5t-20 -100.5t-55.5 -80.5t-84 -53.5t-104.5 -19.5q-57 0 -106 19.5t-84.5 53.5t-55.5 80.5t-20 100.5t20 100.5t55.5 80.5t84.5 53.5t106 19.5zM294 720q-48 0 -88.5 -16t-69.5 -44.5t-45.5 -68t-16.5 -85.5
q0 -47 16.5 -86t45.5 -67.5t69.5 -44.5t88.5 -16t88 16t69.5 44.5t46 67.5t16.5 86q0 46 -16.5 85.5t-46 68t-69.5 44.5t-88 16z" />
    <glyph glyph-name="_496" horiz-adv-x="600" 
 />
  </font>
</defs>
</svg>
